Правила форума

  • В этом разделе создание новых тем Запрещено.
  • Для создания новых тем пользуйтесь Корневым разделом DVD и HD фильмы.
Начать новую темуОтветить на тему  [ 1 сообщение ] 
Торрент файл
Размер: 3.39 GB • Зарегистрирован: 2 года 4 месяца • Статус: T Временный релиз
Скачан: 33 раза • Желающих скачать: 0 • Поблагодарили: 16 раз
 Раздают: 1  |  0 KB/s  ]   Качают: 0  |  0 KB/s  ] 
Сообщения
 Добавлено: 2014-07-11 19:51
Руководитель релиз-группы
Аватара пользователя
Стаж: 7 лет 2 месяца
Возраст: 4
Сообщений: 5213
Спасибок: 19350
Лайков: 2312
Лига мечты / United Passions

Изображение


Год выпуска: 2014
Страна: Франция, Leuviah Films, Thelma Films
Жанр: Драма, исторический, спорт
Продолжительность: 01:49:40
Перевод: Профессиональный (дубляж)

Режиссёр: Фредерик Обуртин
В ролях: Тим Рот, Сэм Нилл, Фишер Стивенс, Томас Кречман, Жерар Депардьё, Джемайма Уэст, Джейсон Бэрри, Мартин Джарвис, Энтони Хиггинс, Ричард Диллэйн
Описание: В начале 20-го века несколько энтузиастов из разных европейских стран решили совместно реализовать амбициозную мечту — создать футбольную организацию, которая объединила бы весь мир! Они назвали ее Международная федерация по футболу или коротко — FIFA… В основе фильма лежит интригующая и несколько скандальная история, основанная на реальных событиях, о возникновении Кубка мира по футболу и трех одержимых людях, способствовавших его проведению. Жюль Риме, Авеланж Жоао и ныне действующий президент FIFA Йозеф «Зепп» Блаттер — три столь разных человека жили в разное время в разных странах. Они наживали врагов, шли на компромиссы, становились жертвами предательства — но они сделали все, чтобы Чемпионат мира по футболу стал реальностью. Эта более чем вековая история прославляет игру, которая, несмотря ни на что, стала не только Всемирным Спортом, но и олицетворением Надежды, Силы духа и Единства.


Качество:WEB-DL (720p)
Формат: MKV
Видео кодек: MPEG-4 AVC
Аудио кодек: AC3 (Dolby Digital)
Видео: MPEG-4 AVC, 3764 Кбит/с, 1280x532
Аудио #1: Русский (AC3, 2 ch, 192 Кбит/с), английский (AC3, 6 ch, 384 Кбит/с) [Профессиональный (дубляж)]
Скриншоты
Изображение
Изображение
Изображение
Свернуть


MI:
General
Complete name : United.Passions.2014.720p.WEB-DL.ELEKTRI4KA.mkv
Format : Matroska
Format version : Version 4 / Version 2
File size : 3.39 GiB
Duration : 1h 49mn
Overall bit rate : 4 428 Kbps
Encoded date : UTC 2014-07-10 15:49:20
Writing application : mkvmerge v7.0.0 ('Where We Going') 64bit built on Jun 9 2014 15:16:27
Writing library : libebml v1.3.0 + libmatroska v1.4.1
DURATION : 01:48:22.464000000
NUMBER_OF_FRAMES : 203202
NUMBER_OF_BYTES : 156059136
_STATISTICS_WRITING_APP : mkvmerge v7.0.0 ('Where We Going') 64bit built on Jun 9 2014 15:16:27
_STATISTICS_WRITING_DATE_UTC : 2014-07-10 15:49:20
_STATISTICS_TAGS : BPS DURATION NUMBER_OF_FRAMES NUMBER_OF_BYTES

Video
ID : 1
Format : AVC
Format/Info : Advanced Video Codec
Format profile : Main@L3.1
Format settings, CABAC : No
Format settings, ReFrames : 2 frames
Codec ID : V_MPEG4/ISO/AVC
Duration : 1h 49mn
Bit rate : 3 764 Kbps
Width : 1 280 pixels
Height : 532 pixels
Display aspect ratio : 2.40:1
Frame rate mode : Constant
Frame rate : 24.000 fps
Color space : YUV
Chroma subsampling : 4:2:0
Bit depth : 8 bits
Scan type : Progressive
Bits/(Pixel*Frame) : 0.230
Stream size : 2.88 GiB (85%)
Language : English
Default : Yes
Forced : No
Color primaries : BT.709
Transfer characteristics : BT.709
Matrix coefficients : BT.709

Audio #1
ID : 2
Format : AC-3
Format/Info : Audio Coding 3
Mode extension : CM (complete main)
Format settings, Endianness : Big
Codec ID : A_AC3
Duration : 1h 49mn
Bit rate mode : Constant
Bit rate : 192 Kbps
Channel(s) : 2 channels
Channel positions : Front: L R
Sampling rate : 48.0 KHz
Bit depth : 16 bits
Compression mode : Lossy
Stream size : 151 MiB (4%)
Language : Russian
Default : No
Forced : Yes

Audio #2
ID : 3
Format : AC-3
Format/Info : Audio Coding 3
Mode extension : CM (complete main)
Format settings, Endianness : Big
Codec ID : A_AC3
Duration : 1h 49mn
Bit rate mode : Constant
Bit rate : 384 Kbps
Channel(s) : 6 channels
Channel positions : Front: L C R, Side: L R, LFE
Sampling rate : 48.0 KHz
Bit depth : 16 bits
Compression mode : Lossy
Stream size : 301 MiB (9%)
Language : English
Default : No
Forced : No

Menu
00:00:00.000 : en:1
00:10:00.000 : en:2
00:20:00.000 : en:3
00:30:00.000 : en:4
00:40:00.000 : en:5
00:50:00.000 : en:6
01:00:00.000 : en:7
01:10:00.000 : en:8
01:20:00.000 : en:9
01:30:00.000 : en:10
Свернуть
Не в сети
Профиль  
Начать новую темуОтветить на тему  [ 1 сообщение ] 
Вы не можете начинать темы
Вы не можете отвечать на сообщения
Вы не можете редактировать свои сообщения
Вы не можете удалять свои сообщения