Правила форума

  • В этом разделе создание новых тем Запрещено.
  • Для создания новых тем пользуйтесь Корневым разделом DVD и HD фильмы.
Начать новую темуОтветить на тему  [ Сообщений: 4 ] 
Торрент файл
Размер: 35.09 GB • Зарегистрирован: 3 года 9 месяцев • Статус: Проверено
Скачан: 37 раз • Желающих скачать: 0 • Поблагодарили: 11 раз
 Раздают: 0  |  0 KB/s  ]   Качают: 0  |  0 KB/s  ] 
 Полного источника не было 1 год 5 месяцев 
Сообщения
 Добавлено: 2013-03-10 18:21
Модератор релиз-группы
Аватара пользователя
Стаж: 6 лет 5 месяцев
Возраст: 25
Сообщений: 622
Спасибок: 10258
Лайков: 7
Линкольн / Lincoln

Изображение


Год выпуска: 2012
Страна: США
Жанр: Драма, биография, история, военный
Продолжительность: 02:29:57
Перевод: Профессиональный (многоголосый закадровый) [BaiBako]

Режиссёр: Стивен Спилберг
В ролях: Дэниэл Дэй-Льюис, Салли Филд, Дэвид Стрэтэйрн, Джозеф Гордон-Левитт, Джеймс Спэйдер, Хэл Холбрук, Томми Ли Джонс, Джон Хоукс, Джеки Эрл Хейли, Брюс МакГилл, Тим Блейк Нельсон, Джозеф Кросс, Джаред Харрис, Ли Пейс, Питер МакРобби, Гулливер МакГрат, Глория Рубен, Джереми Стронг, Майкл Стулбарг, Борис МакГайвер, Дэвид Костабайл, Стивен Спинелла, Уолтон Гоггинс, Дэвид Уоршофски, Колман Доминго, Дэвид Ойелоуо, Лукас Хаас, Дэйн ДеХаан, Карлос Томпсон, Билл Кэмп, Элизабет Марвел, Байрон Дженнингс, Джули Уайт
Описание: Биографическая лента об Аврааме Линкольне, шестнадцатом президенте США, который внес неоценимый вклад в победу северян во времена гражданской войны.
Изображение 7,3/10 (5,428 votes)
Изображение 7,7/10 (71,916 votes)
Раздача группы: Изображение
Качество: Blu-Ray Remux (1080p)
Видео: MPEG-4 AVC, 29.1 Mбит/с, 1920x1080
Аудио: Русский (AC3, 6 ch, 448 Кбит/с), английский (DTS-HD MA, 8 ch, 4271 Кбит/с)
Размер: 35.09 ГБ
Субтитры: Русские, английские, испанские, французские
BDInfo
General
Unique ID : 218000395631732993591180912280771990727 (0xA4015956FC4346B382A229AFB56794C7)
Complete name : D:\Lincoln 2012 1080p Blu-ray Remux AVC DTS-HD MA 7.1.mkv
Format : Matroska
Format version : Version 2
File size : 35.1 GiB
Duration : 2h 29mn
Overall bit rate mode : Variable
Overall bit rate : 33.5 Mbps
Movie name : Denils
Encoded date : UTC 2013-03-10 06:33:30
Writing application : mkvmerge v4.0.0 ('The Stars were mine') сборка от Jun 6 2010 16:18:42
Writing library : libebml v1.0.0 + libmatroska v1.0.0

Video
ID : 1
Format : AVC
Format/Info : Advanced Video Codec
Format profile : High@L4.1
Format settings, CABAC : Yes
Format settings, ReFrames : 4 frames
Codec ID : V_MPEG4/ISO/AVC
Duration : 2h 29mn
Bit rate mode : Variable
Bit rate : 30.8 Mbps
Maximum bit rate : 37.0 Mbps
Width : 1 920 pixels
Height : 1 080 pixels
Display aspect ratio : 16:9
Frame rate mode : Constant
Frame rate : 23.976 fps
Color space : YUV
Chroma subsampling : 4:2:0
Bit depth : 8 bits
Scan type : Progressive
Bits/(Pixel*Frame) : 0.620
Stream size : 32.3 GiB (92%)
Language : English
Default : No
Forced : No

Audio #1
ID : 2
Format : AC-3
Format/Info : Audio Coding 3
Mode extension : CM (complete main)
Format settings, Endianness : Big
Codec ID : A_AC3
Duration : 2h 29mn
Bit rate mode : Constant
Bit rate : 384 Kbps
Channel(s) : 6 channels
Channel positions : Front: L C R, Side: L R, LFE
Sampling rate : 48.0 KHz
Bit depth : 16 bits
Compression mode : Lossy
Stream size : 412 MiB (1%)
Title : BaiBaKo AC3 5.1 384kbps
Language : Russian
Default : No
Forced : No

Audio #2
ID : 3
Format : DTS
Format/Info : Digital Theater Systems
Format profile : MA / Core
Codec ID : A_DTS
Duration : 2h 29mn
Bit rate mode : Variable
Bit rate : 1 606 Kbps / 1 510 Kbps
Channel(s) : 8 channels / 6 channels
Channel positions : Front: L C R, Side: L R, Back: L R, LFE / Front: L C R, Side: L R, LFE
Sampling rate : 48.0 KHz
Bit depth : 24 bits
Compression mode : Lossless / Lossy
Language : English
Default : No
Forced : No

Text #1
ID : 4
Format : PGS
Codec ID : S_HDMV/PGS
Codec ID/Info : The same subtitle format used on BDs/HD-DVDs
Title : SDH
Language : English
Default : No
Forced : No

Text #2
ID : 5
Format : PGS
Codec ID : S_HDMV/PGS
Codec ID/Info : The same subtitle format used on BDs/HD-DVDs
Language : French
Default : No
Forced : No

Text #3
ID : 6
Format : UTF-8
Codec ID : S_TEXT/UTF8
Codec ID/Info : UTF-8 Plain Text
Title : Notabenoid
Language : Russian
Default : No
Forced : No

Text #4
ID : 7
Format : PGS
Codec ID : S_HDMV/PGS
Codec ID/Info : The same subtitle format used on BDs/HD-DVDs
Title : Latin American
Language : Spanish
Default : No
Forced : No

Menu
00:00:00.000 : en:Opening Titles
00:06:11.246 : en:Lincoln's Dream
00:13:57.920 : en:A New Amendment
00:23:16.604 : en:War Powers
00:35:13.570 : en:The House Debate
00:40:31.929 : en:Getting Out The Vote
00:45:53.793 : en:Seeds Of Time
00:52:56.840 : en:Grand Reception
00:59:45.874 : en:The Fallen At Wilmington
01:08:25.977 : en:No Sixteen-Year-Olds Left
01:18:55.940 : en:Equality Under The Law
01:24:30.607 : en:Robert's Ambition
01:35:41.486 : en:Bipartisan Support
01:39:58.868 : en:Fairness And Freedom
01:46:40.769 : en:The Morning Of The Vote
01:52:54.184 : en:This Is History
02:02:51.030 : en:Celebration
02:09:32.264 : en:Petersburg Battlefield
02:15:42.718 : en:How He Belongs To The Ages
02:21:23.308 : en:Credits
Свернуть
BDInfo
Изображение
Изображение
Изображение
Изображение
Свернуть
_________________
Изображение


Последний раз редактировалось Slovetskii 2013-03-10 19:00, всего редактировалось 1 раз.
Не в сети
Профиль  
 Добавлено: 2013-03-10 18:48 (спустя 26 минут)
Top-seeder
Аватара пользователя
Стаж: 8 лет 8 месяцев
Возраст: 26
Сообщений: 665
Спасибок: 2687
Лайков: 2
ахахах скриншоты зачет :-D :-D :-D
Не в сети
Профиль  
 Добавлено: 2013-03-10 18:55 (спустя 6 минут)
Аватара пользователя
Стаж: 7 лет 9 месяцев
Сообщений: 140
Лайков: 26
:bra_vo: от души посмеялся над скриншотами :-D
Не в сети
Профиль  
 Добавлено: 2013-03-10 18:59 (спустя 4 минуты)
Модератор релиз-группы
Аватара пользователя
Стаж: 6 лет 5 месяцев
Возраст: 25
Сообщений: 622
Спасибок: 10258
Лайков: 7
xFOX, AndrBeb

Ну попутал местами, торопился... Со всеми бывает. :)
_________________
Изображение
Не в сети
Профиль  
Начать новую темуОтветить на тему  [ Сообщений: 4 ] 
Вы не можете начинать темы
Вы не можете отвечать на сообщения
Вы не можете редактировать свои сообщения
Вы не можете удалять свои сообщения