Правила форума

  • В этом разделе создание новых тем Запрещено.
  • Для создания новых тем пользуйтесь Корневым разделом DVD и HD фильмы.
Начать новую темуОтветить на тему  [ Сообщений: 5 ] 
Торрент файл
Размер: 7.24 GB • Зарегистрирован: 5 лет • Статус: Проверено
Скачан: 162 раза • Желающих скачать: 0 • Поблагодарили: 21 раз
 Раздают: 0  |  0 KB/s  ]   Качают: 0  |  0 KB/s  ] 
 Полного источника не было 2 года 10 месяцев 
Сообщения
 Добавлено: 2011-11-09 17:42
Top-releaser
Аватара пользователя
Стаж: 8 лет 9 месяцев
Сообщений: 479
Спасибок: 20188
Лайков: 16
Липучка

Flypaper


«Две банды грабителей, одно дурацкое ограбление»

Изображение


Год выпуска: 2011
Страна: Изображение США, Изображение Германия; Film & Entertainment VIP Medienfonds 4 GmbH & Co. KG (I), Foresight
Жанр: Комедия, криминал, детектив
Продолжительность: 01:27:14
Перевод: Профессиональный (дублированный) [Лицензия] + Оригинал

Режиссёр: Роб Минкофф / Rob Minkoff

В ролях: Патрик Демпси, Эшли Джадд, Тим Блейк Нельсон, Мехи Файфер, Мэтт Райан, Джефри Тэмбор, Джон Вентимилья, Прюитт Тэйлор Винс, Октавия Спенсер, Бо Брассо

Описание: Перед самым закрытием в банк врывается две группы грабителей. Посетители и работники банка оказываются между двух огней. Один из посетителей старается примирить представителей двух криминальных групп — ведь это единственный шанс выжить для тех кто оказался в банке, а для него шанс произвести впечатление на девушку-кассира, в которую он влюбился с первого взгляда. Постепенно наш герой понимает, что похоже, все кроме него оказались в этом банке в момент ограбления не случайно…


Качество: BDRip 1080p R5
Формат: MKV

Видео: AVC, 1920 x 818 (2.347) at 23.976 fps, 9200 Kbit/s

Аудио 1: 48 kHz, DTS-HD, 6 ch, ~755 kbps (Дубляж)
Аудио 2: 48 kHz, AC3 Dolby Digital, 6 канал(ов), ~448 kbit/s (Украинский)
Аудио 3: 48 kHz, DTS-HD, 6 канал(ов), ~1510 kbit/s (Оригинал)

Раздача: Изображение

Изображение

Изображение
MediaInfo

Общее
Уникальный идентификатор : 226451049227961881806146930613184585968 (0xAA5CE2BAEA5D5589A99096D0BFF760F0)
Полное имя : C:\Users\Домашний\Desktop\Flypaper.2011.BDRip.1080р [nntt].mkv
Формат : Matroska
Размер файла : 7,24 Гбайт
Продолжительность : 1 ч. 27 м.
Общий поток : 11,9 Мбит/сек
Название фильма : Flypaper.2011.BluRay.1080p.DTS.x264-CHD [rutracker.org]
Дата кодирования : UTC 2011-11-08 19:54:51
Программа кодирования : mkvmerge v4.9.1 ('Ich will') сборка от Aug 10 2011 09:31:20
Библиотека кодирования : libebml v1.2.1 + libmatroska v1.2.0

Видео
Идентификатор : 1
Формат : AVC
Формат/Информация : Advanced Video Codec
Профиль формата : High@L4.1
Параметр CABAC формата : Да
Параметр ReFrames формата : 5 кадры
Идентификатор кодека : V_MPEG4/ISO/AVC
Продолжительность : 1 ч. 27 м.
Битрейт : 9200 Кбит/сек
Ширина : 1920 пикс.
Высота : 818 пикс.
Соотношение сторон : 2,35:1
Частота кадров : 23,976 кадр/сек
Цветовое пространство : YUV
Подвыборка цветности : 4:2:0
Битовая глубина : 8 бит
Тип развёртки : Прогрессивная
Бит/(Пиксели*Кадры) : 0.244
Размер потока : 5,45 Гбайт (75%)
Заголовок : Flypaper.2011.BluRay.1080p.DTS.x264-CHD
Библиотека кодирования : x264 core 116 r2074 2641b9e
Настройки программы : cabac=1 / ref=5 / deblock=1:-3:-3 / analyse=0x3:0x113 / me=umh / subme=10 / psy=1 / psy_rd=1.00:0.05 / mixed_ref=1 / me_range=32 / chroma_me=1 / trellis=2 / 8x8dct=1 / cqm=0 / deadzone=21,11 / fast_pskip=0 / chroma_qp_offset=-2 / threads=8 / sliced_threads=0 / nr=0 / decimate=1 / interlaced=0 / bluray_compat=0 / constrained_intra=0 / bframes=6 / b_pyramid=2 / b_adapt=2 / b_bias=0 / direct=3 / weightb=1 / open_gop=0 / weightp=2 / keyint=250 / keyint_min=23 / scenecut=40 / intra_refresh=0 / rc_lookahead=50 / rc=2pass / mbtree=1 / bitrate=9200 / ratetol=1.0 / qcomp=0.70 / qpmin=0 / qpmax=69 / qpstep=4 / cplxblur=20.0 / qblur=0.5 / vbv_maxrate=45000 / vbv_bufsize=40000 / nal_hrd=none / ip_ratio=1.40 / aq=2:0.80
Язык : English

Аудио #1
Идентификатор : 2
Формат : DTS
Формат/Информация : Digital Theater Systems
Идентификатор кодека : A_DTS
Продолжительность : 1 ч. 27 м.
Вид битрейта : Постоянный
Битрейт : 755 Кбит/сек
Канал(ы) : 6 канала(ов)
Расположение каналов : Front: L C R, Side: L R, LFE
Частота : 48,0 КГц
Битовая глубина : 24 бит
Метод сжатия : С потерями
Размер потока : 471 Мбайт (6%)
Заголовок : Dub
Язык : Russian

Аудио #2
Идентификатор : 3
Формат : AC-3
Формат/Информация : Audio Coding 3
Расширение режима : CM (complete main)
Идентификатор кодека : A_AC3
Продолжительность : 1 ч. 27 м.
Вид битрейта : Постоянный
Битрейт : 448 Кбит/сек
Канал(ы) : 6 канала(ов)
Расположение каналов : Front: L C R, Side: L R, LFE
Частота : 48,0 КГц
Битовая глубина : 16 бит
Метод сжатия : С потерями
Размер потока : 280 Мбайт (4%)
Заголовок : Dub
Язык : Ukrainian

Аудио #3
Идентификатор : 4
Формат : DTS
Формат/Информация : Digital Theater Systems
Идентификатор кодека : A_DTS
Продолжительность : 1 ч. 27 м.
Вид битрейта : Постоянный
Битрейт : 1510 Кбит/сек
Канал(ы) : 6 канала(ов)
Расположение каналов : Front: L C R, Side: L R, LFE
Частота : 48,0 КГц
Битовая глубина : 24 бит
Метод сжатия : С потерями
Размер потока : 942 Мбайт (13%)
Заголовок : DTS-CORE 1536K
Язык : English

Текст #1
Идентификатор : 5
Формат : UTF-8
Идентификатор кодека : S_TEXT/UTF8
Идентификатор кодека/Информация : UTF-8 Plain Text
Язык : Russian

Текст #2
Идентификатор : 6
Формат : UTF-8
Идентификатор кодека : S_TEXT/UTF8
Идентификатор кодека/Информация : UTF-8 Plain Text
Язык : English

Меню
00:00:00.000 : en:00:00:00.000
00:06:26.803 : en:00:06:26.803
00:14:44.217 : en:00:14:44.217
00:22:13.541 : en:00:22:13.541
00:30:18.650 : en:00:30:18.650
00:38:39.609 : en:00:38:39.609
00:46:52.852 : en:00:46:52.852
00:58:53.405 : en:00:58:53.405
01:05:45.233 : en:01:05:45.233
01:13:13.347 : en:01:13:13.347
01:20:24.570 : en:01:20:24.570
01:21:55.577 : en:01:21:55.577


Свернуть
Скриншоты
Изображение
Изображение
Изображение
Изображение
Изображение
Свернуть
_________________
Изображение
Изображение
Не в сети
Профиль  
 Добавлено: 2011-11-09 20:03 (спустя 2 часа 20 минут)
Top-releaser
Аватара пользователя
Стаж: 8 лет 7 месяцев
Сообщений: 1286
Спасибок: 3420
Лайков: 7
Вот и бубняж. Смотреть всем, фильм супер. Интересно как он с цензурным переводом? Кто посмотрел отпишитесь.
Не в сети
Профиль  
 Добавлено: 2011-11-10 21:10 (спустя 1 день 1 час)
Кинокомментатор
Аватара пользователя
Стаж: 9 лет 1 месяц
Сообщений: 1332
Лайков: 54
зачёт киноша) кажется что тупая, кажется что слабая!) но!) но смотрится интересно, захватывающе и с желанием:) многие люди могут просто юмора не понять:) не нужно усложнять) просто доверьтесь фильму и он вас порадует;)
но в принципе это детектив в запертом пространстве с убийцей дворецким, с долей юмора и глупости:)
я бы даже 8 поставил:) за пазитивное времяприпровождение моё:)
_________________
Я ВКонтакте
Не в сети
Профиль  
 Добавлено: 2011-11-10 21:39 (спустя 29 минут)
Top-releaser
Аватара пользователя
Стаж: 8 лет 7 месяцев
Сообщений: 1286
Спасибок: 3420
Лайков: 7
Да 8 точно! Но я боюсь что цензурный перевод фильм испортил. Хотя так и не смотрел в дубляже, опять же боюсь :par_don: уж очень нецензурный понравился :)
Не в сети
Профиль  
 Добавлено: 2011-11-16 15:59 (спустя 5 дней)
Аватара пользователя
Стаж: 8 лет
Сообщений: 32
:men: сказочка на ночь))
Не в сети
Профиль  
Начать новую темуОтветить на тему  [ Сообщений: 5 ] 
Вы не можете начинать темы
Вы не можете отвечать на сообщения
Вы не можете редактировать свои сообщения
Вы не можете удалять свои сообщения