Правила форума

  • В этом разделе создание новых тем Запрещено.
  • Для создания новых тем пользуйтесь Корневым разделом DVD и HD фильмы.
Начать новую темуОтветить на тему  [ Сообщений: 8 ] 
Торрент файл
Размер: 6.94 GB • Зарегистрирован: 5 лет 1 месяц • Статус: T Временный релиз
Скачан: 287 раз • Желающих скачать: 0 • Поблагодарили: 45 раз
 Раздают: 0  |  0 KB/s  ]   Качают: 0  |  0 KB/s  ] 
 Полного источника не было 3 года 2 месяца 
Сообщения
 Добавлено: 2011-10-12 22:38
Top-releaser
Аватара пользователя
Стаж: 8 лет 7 месяцев
Сообщений: 1286
Спасибок: 3420
Лайков: 7
Изображение

Липучка / Flypaper


«Две банды грабителей, одно дурацкое ограбление»

Год выпуска: 2011
Страна: США, Германия
Жанр: комедия, криминал, детектив
Продолжительность: 01:27:14
Перевод: Субтитры, Любительский (одноголосый)[den 904]

Режиссер: Роб Минкофф / Rob Minkoff
Сценарий: Джон Лукас / Jon Lucas, Скотт Мур / Scott Moore
Продюсер: Питер Сафран / Peter Safran, Марк Дэймон / Mark Damon, Патрик Демпси / Patrick Dempsey, Моше Дайамант / Moshe Diamant, Кристиан Арнольд-Бютел / Christian Arnold-Beutel
Оператор: Стивен Б. Постер / Steven B. Poster
Композитор: Джон Шайхэрт / John Swihart

В ролях: Патрик Демпси (Tripp), Эшли Джадд (Kaitlin), Тим Блейк Нельсон (Peanut Butter), Мехи Файфер (Darrien), Мэтт Райан (Gates), Джефри Тэмбор (Gordon Blythe), Джон Вентимилья (Weinstein), Прюитт Тэйлор Винс (Jelly), Октавия Спенсер (Madge Wiggins), Кертис Армстронг, Моника Акоста (Bank Customer), Бо Брассо (E.M.T.)
Дублёры: Александр Гаврилин (Tripp), Нина Тобилевич (Kaitlin), Всеволод Кузнецов (Darrien), Иван Жарков (Gates), Алексей Колган (Jelly)

Описание: Перед самым закрытием в банк врывается две группы грабителей. Посетители и работники банка оказываются между двух огней. Один из посетителей старается примирить представителей двух криминальных групп - ведь это единственный шанс выжить для тех кто оказался в банке, а для него шанс произвести впечатление на девушку-кассира, в которую он влюбился с первого взгляда. Постепенно наш герой понимает, что похоже, все кроме него оказались в этом банке в момент ограбления не случайно…

Раздача: Изображение

kinopoisk.ru: 7.175 (1 640)

Бюджет: $5 000 000
Сборы в США: $1 232
Сборы в России: $1 071 151
Сборы в мире: $584 498
Качество: BDRip
Формат: Matroska
Видео: AVC; 1920x816 (2.35:1); 9019 kbps; 23,976 fps; 0,240 bpp
Аудио №1: Russian; AC3; 192 kbps; CBR; 2 channels
Аудио №2: Ukrainian; AC3; 448 kbps; CBR; 6 channels [Дубляж]
Аудио №3: DTS; 1509 kbps; CBR; 6 channels; 16 bit

Субтитры №1: Russian
Субтитры №2: English

MediaInfo
Общее
Уникальный идентификатор : 173314247887387222393917587559546394196 (0x82631C279E483EC786BAEBC31B589654)
Полное имя : E:\Видео\Lipuchka.2011.BDRip.1080p.mkv
Формат : Matroska
Версия формата : Version 2
Размер файла : 6,94 Гбайт
Продолжительность : 1 ч. 27 м.
Общий поток : 11,4 Мбит/сек
Название фильма : --SCHUMAHER--
Дата кодирования : UTC 2011-10-11 17:56:36
Программа кодирования : mkvmerge v5.0.1 ('Es ist Sommer') built on Oct 9 2011 11:55:43
Библиотека кодирования : libebml v1.2.2 + libmatroska v1.3.0

Видео
Идентификатор : 1
Формат : AVC
Формат/Информация : Advanced Video Codec
Профиль формата : High@L4.1
Параметр CABAC формата : Да
Параметр ReFrames формата : 5 кадров
Идентификатор кодека : V_MPEG4/ISO/AVC
Продолжительность : 1 ч. 27 м.
Битрейт : 9248 Кбит/сек
Ширина : 1920 пикс.
Высота : 816 пикс.
Соотношение сторон : 2,35:1
Частота кадров : 23,976 кадр/сек
Цветовое пространство : YUV
Подвыборка цветности : 4:2:0
Битовая глубина : 8 бит
Тип развёртки : Прогрессивная
Бит/(Пиксели*Кадры) : 0.246
Размер потока : 5,50 Гбайт (79%)
Библиотека кодирования : x264 core 118 r2085 8a62835
Настройки программы : cabac=1 / ref=5 / deblock=1:0:0 / analyse=0x3:0x133 / me=umh / subme=7 / psy=1 / psy_rd=1.00:0.00 / mixed_ref=1 / me_range=16 / chroma_me=1 / trellis=1 / 8x8dct=1 / cqm=0 / deadzone=21,11 / fast_pskip=0 / chroma_qp_offset=-2 / threads=12 / sliced_threads=0 / nr=0 / decimate=1 / interlaced=0 / bluray_compat=0 / constrained_intra=0 / bframes=3 / b_pyramid=2 / b_adapt=2 / b_bias=0 / direct=3 / weightb=1 / open_gop=0 / weightp=2 / keyint=250 / keyint_min=23 / scenecut=40 / intra_refresh=0 / rc_lookahead=50 / rc=2pass / mbtree=1 / bitrate=9248 / ratetol=1.0 / qcomp=0.60 / qpmin=0 / qpmax=69 / qpstep=4 / cplxblur=20.0 / qblur=0.5 / ip_ratio=1.40 / aq=1:1.00
Язык : English

Аудио #1
Идентификатор : 2
Формат : AC-3
Формат/Информация : Audio Coding 3
Расширение режима : CM (complete main)
Идентификатор кодека : A_AC3
Продолжительность : 1 ч. 27 м.
Вид битрейта : Постоянный
Битрейт : 192 Кбит/сек
Каналы : 2 канала
Расположение каналов : Front: L R
Частота : 48,0 КГц
Битовая глубина : 16 бит
Метод сжатия : С потерями
Размер потока : 120 Мбайт (2%)
Язык : Russian

Аудио #2
Идентификатор : 3
Формат : AC-3
Формат/Информация : Audio Coding 3
Расширение режима : CM (complete main)
Идентификатор кодека : A_AC3
Продолжительность : 1 ч. 27 м.
Вид битрейта : Постоянный
Битрейт : 448 Кбит/сек
Каналы : 6 каналов
Расположение каналов : Front: L C R, Side: L R, LFE
Частота : 48,0 КГц
Битовая глубина : 16 бит
Метод сжатия : С потерями
Размер потока : 280 Мбайт (4%)
Язык : Ukrainian

Аудио #3
Идентификатор : 4
Формат : DTS
Формат/Информация : Digital Theater Systems
Идентификатор кодека : A_DTS
Продолжительность : 1 ч. 27 м.
Вид битрейта : Постоянный
Битрейт : 1510 Кбит/сек
Каналы : 6 каналов
Расположение каналов : Front: L C R, Side: L R, LFE
Частота : 48,0 КГц
Битовая глубина : 16 бит
Метод сжатия : С потерями
Размер потока : 942 Мбайт (13%)
Язык : English

Текст #1
Идентификатор : 5
Формат : UTF-8
Идентификатор кодека : S_TEXT/UTF8
Идентификатор кодека/Информация : UTF-8 Plain Text
Язык : Russian

Текст #2
Идентификатор : 6
Формат : UTF-8
Идентификатор кодека : S_TEXT/UTF8
Идентификатор кодека/Информация : UTF-8 Plain Text
Язык : English

Свернуть

Скриншоты
[img]>>ERROR<<[/img]

Изображение

Изображение

Изображение
Свернуть
Не в сети
Профиль  
 Добавлено: 2011-10-13 16:45 (спустя 18 часов)
Аватара пользователя
Стаж: 9 лет
Сообщений: 21
Спасибок: 821
Сборы в США ;;-)))
Не в сети
Профиль  
 Добавлено: 2011-10-13 20:13 (спустя 3 часа)
Top-releaser
Аватара пользователя
Стаж: 8 лет 7 месяцев
Сообщений: 1286
Спасибок: 3420
Лайков: 7
Фильм обалденный, странно что про него ничего не слышал. И название ни о чём не говорит, скачал его совершенно случайно. Советую к просмотру.
Не в сети
Профиль  
 Добавлено: 2011-10-23 09:56 (спустя 9 дней)
Аватара пользователя
Стаж: 8 лет 1 месяц
Сообщений: 34
Спасибок: 7

Tosh:

Сборы в США ;;-)))

:-D :-D :-D
Дааа не окупилось малёхо кино)))
Не в сети
Профиль  
 Добавлено: 2011-10-23 10:27 (спустя 31 минута)
Top-releaser
Аватара пользователя
Стаж: 8 лет 7 месяцев
Сообщений: 1286
Спасибок: 3420
Лайков: 7

Tosh:

Сборы в США ;;-)))
посмотрел на кинопоиске, это сборы в 2-х кинотеатрах за 3 дня. так, что эта цифра ни о чём не говорит.
Не в сети
Профиль  
 Добавлено: 2011-10-30 14:04 (спустя 7 дней)
Аватара пользователя
Стаж: 6 лет 3 месяца
Возраст: 34
Сообщений: 3
Фильм классный. Правда релизер забыл указать наличие ненормативной лексики в Ру переводе, но фильм это не портит. :)
_________________
Изображение
Не в сети
Профиль  
 Добавлено: 2011-11-02 20:17 (спустя 3 дня)
Аватара пользователя
Стаж: 7 лет 11 месяцев
Сообщений: 786
Спасибок: 25
Лайков: 9
:-ok-: Dj Во т такай вот Фильм :-ok-:
Не в сети
Профиль  
 Добавлено: 2011-11-23 19:15 (спустя 20 дней)
Аватара пользователя
Стаж: 7 лет 4 месяца
Возраст: 25
Сообщений: 14
аааа, фильм просто жара, он меня разсмешил, перевод четкий и фильм со смыслом. Автору :cool_cool: :son-ce: :kav_boy:
Не в сети
Профиль  
Начать новую темуОтветить на тему  [ Сообщений: 8 ] 
Вы не можете начинать темы
Вы не можете отвечать на сообщения
Вы не можете редактировать свои сообщения
Вы не можете удалять свои сообщения