Правила форума

  • В этом разделе создание новых тем Запрещено.
  • Для создания новых тем пользуйтесь Корневым разделом DVD и HD фильмы.
Начать новую темуОтветить на тему  [ Сообщений: 4 ] 
Торрент файл
Размер: 7.1 GB • Зарегистрирован: 4 года 3 месяца • Статус: Проверено
Скачан: 27 раз • Желающих скачать: 0 • Поблагодарили: 7 раз
 Раздают: 0  |  0 KB/s  ]   Качают: 0  |  0 KB/s  ] 
 Полного источника не было 3 года 1 месяц 
Сообщения
 Добавлено: 2012-08-20 17:48
Top-releaser
Аватара пользователя
Стаж: 6 лет 7 месяцев
Сообщений: 2078
Спасибок: 3229
Лайков: 9
Изображение

Лысый нянька: Спецзадание / The Pacifier


Год выпуска: 2005
Страна: США, Канада
Слоган: «Добро пожаловать в пехоту.»
Жанр: боевик, триллер, драма, комедия, семейный
Продолжительность: 01:35:20
Перевод: Профессиональный (полное дублирование)
Режиссер: Адам Шенкман
Сценарий: Томас Леннон, Роберт Бен Гарант
Оператор: Питер Джеймс
Композитор: Джон Дебни
В ролях: Вин Дизель, Лорен Грэм, Фэйт Форд, Бриттани Сноу, Макс Тириот, Крис Поттер, Кэрол Кейн, Брэд Гэррет, Морган Йорк
Бюджет: $56 000 000
Сборы в мире: $198 636 868
Описание: История о бывшем морском пехотинце, охраняющем работающего на правительство ученого и пятерых его детей. Как показывает практика, детей нужно охранять не только от злоумышленников, но и от них самих. Причем не следует забывать и о собственной безопасности. Их ведь пятеро, и все они чрезвычайно коварны.
Изображение
Раздача группы: Изображение
Качество: BDRip, 1080p
Формат: Matroska
Видео: AVC; 1920x800 (2.40:1); 9429 Kbps; 23,976 fps; 0,256 bit/pixel
Аудио №1: Russian; AC3; 384 Kbps; CBR; 6 ch
Аудио №2: English; AC3; 640 Kbps; CBR; 6 ch

"Знаете ли Вы, что..."
  • Вин Дизелю настолько понравилось играть со своим 9-месячным партнёром, что готов был работать на площадке даже в выходные.
Свернуть
MediaInfo
Общее
Уникальный идентификатор : 214751695466102077863168138657997302560 (0xA18FAC0E215392A59E588B936D2CAB20)
Полное имя : Z:\WWW\TR-Downloads\The.Pacifier.1080p[R.G.Daredevil].mkv
Формат : Matroska
Версия формата : Version 1
Размер файла : 7,10 Гбайт
Продолжительность : 1 ч. 35 м.
Общий поток : 10,7 Мбит/сек
Название фильма : Release for Kinozal.TV (Rip by Diablo07)
Дата кодирования : UTC 2010-05-18 17:45:56
Программа кодирования : mkvmerge v2.2.0 ('Turn It On Again') built on Mar 4 2008 13:20:25
Библиотека кодирования : libebml v0.7.7 + libmatroska v0.8.1

Видео
Идентификатор : 1
Формат : AVC
Формат/Информация : Advanced Video Codec
Профиль формата : High@L4.0
Параметр CABAC формата : Да
Параметр ReFrames формата : 4 кадра
Идентификатор кодека : V_MPEG4/ISO/AVC
Продолжительность : 1 ч. 35 м.
Битрейт : 9429 Кбит/сек
Номинальный битрейт : 10000 Кбит/сек
Ширина : 1920 пикселей
Высота : 800 пикселей
Соотношение сторон : 2,40:1
Частота кадров : 23,976 кадра/сек
Цветовое пространство : YUV
Субдискретизация насыщенности : 4:2:0
Битовая глубина : 8 бит
Тип развёртки : Прогрессивная
Бит/(Пиксели*Кадры) : 0.256
Размер потока : 6,28 Гбайт (88%)
Заголовок : The Pacifier
Библиотека кодирования : x264 core 92 r1510 33d382a
Настройки программы : cabac=1 / ref=3 / deblock=1:0:0 / analyse=0x3:0x113 / me=hex / subme=7 / psy=1 / psy_rd=1.00:0.00 / mixed_ref=1 / me_range=16 / chroma_me=1 / trellis=1 / 8x8dct=1 / cqm=0 / deadzone=21,11 / fast_pskip=1 / chroma_qp_offset=-2 / threads=3 / sliced_threads=0 / nr=0 / decimate=1 / interlaced=0 / constrained_intra=0 / bframes=3 / b_pyramid=2 / b_adapt=1 / b_bias=0 / direct=1 / wpredb=1 / wpredp=2 / keyint=250 / keyint_min=25 / scenecut=40 / intra_refresh=0 / rc_lookahead=40 / rc=abr / mbtree=1 / bitrate=10000 / ratetol=1.0 / qcomp=0.60 / qpmin=10 / qpmax=51 / qpstep=4 / ip_ratio=1.40 / aq=1:1.00
Default : Да
Forced : Нет

Аудио #1
Идентификатор : 2
Формат : AC-3
Формат/Информация : Audio Coding 3
Расширение режима : CM (complete main)
Параметр Endianness формата : Big
Идентификатор кодека : A_AC3
Продолжительность : 1 ч. 35 м.
Вид битрейта : Постоянный
Битрейт : 384 Кбит/сек
Каналы : 6 каналов
Расположение каналов : Front: L C R, Side: L R, LFE
Частота : 48,0 КГц
Битовая глубина : 16 бит
Метод сжатия : С потерями
Размер потока : 262 Мбайт (4%)
Заголовок : Дубляж
Язык : Russian
Default : Да
Forced : Нет

Аудио #2
Идентификатор : 3
Формат : AC-3
Формат/Информация : Audio Coding 3
Расширение режима : CM (complete main)
Параметр Endianness формата : Big
Идентификатор кодека : A_AC3
Продолжительность : 1 ч. 35 м.
Вид битрейта : Постоянный
Битрейт : 640 Кбит/сек
Каналы : 6 каналов
Расположение каналов : Front: L C R, Side: L R, LFE
Частота : 48,0 КГц
Битовая глубина : 16 бит
Метод сжатия : С потерями
Размер потока : 436 Мбайт (6%)
Язык : English
Default : Нет
Forced : Нет
Свернуть
Скриншоты
Изображение
Изображение
Изображение
Изображение
Изображение
Свернуть
Не в сети
Профиль  
 Добавлено: 2012-08-20 22:04 (спустя 4 часа)
Аватара пользователя
Стаж: 6 лет 5 месяцев
Сообщений: 19940
Спасибок: 721
Лайков: 459
:-[
_________________
It was I'am ... :jn_pu_sk:
Медали и Ордена
ИзображениеИзображение
Свернуть
В сети
Профиль  
 Добавлено: 2012-08-20 22:57 (спустя 53 минуты)
Аватара пользователя
Стаж: 8 лет 7 месяцев
Сообщений: 1702
Спасибок: 104
Лайков: 152
скорость радует, посмотрим и фильм, захотелось че-то комедии ... спс
посмотрел... ну ни че так фильм, смотреть семьей - самое то!


Последний раз редактировалось Alexsever 2012-08-24 08:21, всего редактировалось 1 раз.
Не в сети
Профиль  
 Добавлено: 2012-08-22 20:19 (спустя 1 день 21 час)
Аватара пользователя
Стаж: 5 лет 10 месяцев
Возраст: 22
Сообщений: 8
:)
Не в сети
Профиль  
Начать новую темуОтветить на тему  [ Сообщений: 4 ] 
Вы не можете начинать темы
Вы не можете отвечать на сообщения
Вы не можете редактировать свои сообщения
Вы не можете удалять свои сообщения