Правила форума

  • В этом разделе создание новых тем Запрещено.
  • Для создания новых тем пользуйтесь Корневым разделом DVD и HD фильмы.
Начать новую темуОтветить на тему  [ 1 сообщение ] 
Торрент файл
Размер: 5.55 GB • Зарегистрирован: 3 года 10 месяцев • Статус: Проверено
Скачан: 46 раз • Желающих скачать: 0 • Поблагодарили: 4 раза
 Раздают: 0  |  0 KB/s  ]   Качают: 0  |  0 KB/s  ] 
 Полного источника не было 1 год 3 месяца 
Сообщения
 Добавлено: 2013-01-31 11:56
Модератор релиз-группы
Аватара пользователя
Стаж: 6 лет 5 месяцев
Возраст: 25
Сообщений: 622
Спасибок: 10257
Лайков: 7
Любит / Не любит / Take This Waltz

Изображение


Год выпуска: 2011
Страна: Канада, Испания, Япония
Жанр: драма, комедия
Продолжительность: 01:56:25
Перевод: Профессиональный (многоголосый закадровый)
Субтитры: Английские

Режиссёр: Сара Полли
В ролях: Мишель Уильямс, Сет Роген, Люк Кирби, Сара Силверман, Дженнифер Подемски, Дайэн Д’Акила, Ванесса Коэльо, Грэхэм Эбби, Дэмиен Аткинс, Аарон Абрамс
Описание: Когда Марго впервые встречает Дэниэла, напряжение между ними возникает мгновенно. Вскоре после их случайного знакомства выясняется, что Дэниэл — новый сосед Марго и ее мужа Лу.28-летняя писательница Марго шесть лет замужем за Лу, успешным автором кулинарных книг. Оба счастливы в своей уютной размерен- ной жизни в пригороде Торонто и абсолютно уверены в своих чувствах. Эмоции, которые Марго начинает испытывать к новому приятелю совершенно не похожи на то, что происходит у них с мужем. Лу — забавный, добрый, милый, и постоянно готовит курицу, работая над очередным кулинарным бестселлером (и это немного раздражает Марго). А с симпатичным соседом — жаркое лето, прогулки, разговоры, многозначительные взгляды, ночной бассейн, щемящее чувство запрета. Марго окончательно теряет равновесие…
Изображение 7.3/10 (130 votes)
Изображение 6.5/10 (8,503 votes)
Раздача группы: Изображение
Качество: BDRip 720p
Формат: MKV
Видео: 6000 kb/s, 1280x694
Аудио #1: Russian: AC3, 192 kb/s (2 ch) / English: AC3, 640 kb/s (6 ch)
Субтитры: Английские
Дополнительно: Сохранены оригинальные чаптеры как на Blu-Ray.
Изображение
BDInfo
General
Unique ID : 231395086586845400203527859064508457147 (0xAE1512977F5BA7EFB75F9EFE52CB20BB)
Complete name : Take.This.Waltz.2011.P.BDRip.720p.IRONCLUB.mkv
Format : Matroska
Format version : Version 2
File size : 5.55 GiB
Duration : 1h 56mn
Overall bit rate : 6 830 Kbps
Movie name : IRONCLUB
Encoded date : UTC 2013-01-30 23:52:54
Writing application : mkvmerge v5.2.0 ('I can't explain') built on Dec 18 2011 18:12:03
Writing library : libebml v1.2.3 + libmatroska v1.3.0

Video
ID : 1
Format : AVC
Format/Info : Advanced Video Codec
Format profile : High@L4.1
Format settings, CABAC : Yes
Format settings, ReFrames : 9 frames
Codec ID : V_MPEG4/ISO/AVC
Duration : 1h 56mn
Bit rate : 6 000 Kbps
Width : 1 280 pixels
Height : 694 pixels
Display aspect ratio : 1.85:1
Frame rate : 23.976 fps
Color space : YUV
Chroma subsampling : 4:2:0
Bit depth : 8 bits
Scan type : Progressive
Bits/(Pixel*Frame) : 0.282
Stream size : 4.77 GiB (86%)
Title : Take.This.Waltz.2011.720p.Bluray.DD5.1.x264-DON
Writing library : x264 core 116 r2057 0ba8a9c
Encoding settings : cabac=1 / ref=9 / deblock=1:-3:-3 / analyse=0x3:0x133 / me=umh / subme=10 / psy=1 / psy_rd=1.00:0.00 / mixed_ref=1 / me_range=32 / chroma_me=1 / trellis=2 / 8x8dct=1 / cqm=0 / deadzone=21,11 / fast_pskip=0 / chroma_qp_offset=-2 / threads=14 / sliced_threads=0 / nr=0 / decimate=0 / interlaced=0 / bluray_compat=0 / constrained_intra=0 / bframes=7 / b_pyramid=2 / b_adapt=2 / b_bias=0 / direct=3 / weightb=1 / open_gop=0 / weightp=2 / keyint=250 / keyint_min=23 / scenecut=40 / intra_refresh=0 / rc_lookahead=40 / rc=2pass / mbtree=0 / bitrate=6000 / ratetol=1.0 / qcomp=0.65 / qpmin=0 / qpmax=40 / qpstep=4 / cplxblur=20.0 / qblur=0.5 / vbv_maxrate=50000 / vbv_bufsize=50000 / nal_hrd=none / ip_ratio=1.25 / pb_ratio=1.25 / aq=1:0.65
Language : English
Default : Yes
Forced : Yes

Audio #1
ID : 2
Format : AC-3
Format/Info : Audio Coding 3
Mode extension : CM (complete main)
Format settings, Endianness : Big
Codec ID : A_AC3
Duration : 1h 56mn
Bit rate mode : Constant
Bit rate : 192 Kbps
Channel(s) : 2 channels
Channel positions : Front: L R
Sampling rate : 48.0 KHz
Bit depth : 16 bits
Compression mode : Lossy
Stream size : 160 MiB (3%)
Title : DD 2.0 @ 192 kbps - MVO
Language : Russian
Default : Yes
Forced : Yes

Audio #2
ID : 3
Format : AC-3
Format/Info : Audio Coding 3
Mode extension : CM (complete main)
Format settings, Endianness : Big
Codec ID : A_AC3
Duration : 1h 56mn
Bit rate mode : Constant
Bit rate : 640 Kbps
Channel(s) : 6 channels
Channel positions : Front: L C R, Side: L R, LFE
Sampling rate : 48.0 KHz
Bit depth : 16 bits
Compression mode : Lossy
Stream size : 533 MiB (9%)
Title : DD 5.1 @ 640 kbps
Language : English
Default : No
Forced : No

Text
ID : 4
Format : UTF-8
Codec ID : S_TEXT/UTF8
Codec ID/Info : UTF-8 Plain Text
Language : English
Default : No
Forced : No

Menu
00:00:00.000 : en:00:00:00.000
00:07:13.475 : en:00:07:13.475
00:14:43.466 : en:00:14:43.466
00:20:48.289 : en:00:20:48.289
00:27:20.347 : en:00:27:20.347
00:34:48.461 : en:00:34:48.461
00:41:44.627 : en:00:41:44.627
00:50:56.011 : en:00:50:56.011
00:58:47.774 : en:00:58:47.774
01:06:00.707 : en:01:06:00.707
01:12:53.327 : en:01:12:53.327
01:21:11.283 : en:01:21:11.283
01:28:47.489 : en:01:28:47.489
01:35:43.571 : en:01:35:43.571
01:45:44.338 : en:01:45:44.338
01:52:07.721 : en:01:52:07.721
Свернуть

Скриншоты
Изображение
Изображение
Изображение
Изображение
Свернуть
_________________
Изображение
Не в сети
Профиль  
Начать новую темуОтветить на тему  [ 1 сообщение ] 
Вы не можете начинать темы
Вы не можете отвечать на сообщения
Вы не можете редактировать свои сообщения
Вы не можете удалять свои сообщения