Правила форума

  • В этом разделе создание новых тем Запрещено.
  • Для создания новых тем пользуйтесь Корневым разделом DVD и HD фильмы.
Начать новую темуОтветить на тему  [ Сообщений: 3 ] 
Торрент файл
Размер: 5.79 GB • Зарегистрирован: 3 года 9 месяцев • Статус: Проверено
Скачан: 30 раз • Желающих скачать: 0 • Поблагодарили: 19 раз
 Раздают: 0  |  0 KB/s  ]   Качают: 0  |  0 KB/s  ] 
 Полного источника не было 2 года 1 месяц 
Сообщения
 Добавлено: 2013-02-16 21:21
Стаж: 7 лет 4 месяца
Сообщений: 58
Спасибок: 42
Лайков: 1
Изображение

Любовь / Amour

Год выпуска: 2012
Страна: Франция, Австрия, Германия
Слоган: «Испытание чувств на закате жизни»

Жанр: драма, мелодрама
Продолжительность: 02:01:55
Перевод: Профессиональный (многоголосый, закадровый), оригинальная дорожка

Режиссер: Михаэль Ханеке / Michael Haneke
Сценарий: Михаэль Ханеке / Michael Haneke
Продюсер: Михаэль Андре / Michael Andre, Беттина Рейц / Bettina Reitz, Беттина Риклефс / Bettina Ricklefs, Уве Шотт / Uwe Schott, Штефан Арндт / Stefan Arndt
Оператор: Дариус Хонджи / Darius Khondji

В ролях: Жан-Луи Трентиньян (Georges), Эмманюэль Рива (Anne), Изабель Юппер (Eva), Александр Таро (Alexandre), Уильям Шимелл (Geoff), Рамон Агирр (Concierge's Husband), Рита Бланко (Concierge), Кароль Франк (Nurse #1), Динара Друкарова (Nurse #2), Лорен Капеллуто (Police Officer #1), Жан-Мишель Монрок (Police Officer #2), Сюзанн Шмидт (Neighbour)
Бюджет: Евро 7 290 000
Сборы в США: $3 223 129
Сборы в России: $153 000
Сборы в мире: $16 323 129

Мировая премьера: 20 мая 2012
Релиз на DVD: 28 ноября 2012, «Кармен Видео», «Новый Диск»
Описание: Жорж и Анна прожили вместе всю жизнь, рука об руку, постоянно заботясь друг о друге. Сейчас им за восемьдесят. Анна заболевает и ее жизнь начинает постепенно угасать: сначала отключается память, потом отказывается подчиняться тело, наступает паралич. Жорж пытается нанять сиделок, но с горечью понимает, что не может требовать от них душевной теплоты и искренности чувств. Оставив преподавание в консерватории, он всецело посвящает себя заботам о жене. Мужчина не может представить любимую в доме престарелых, о котором настаивает их взрослая дочь, время от времени навещающая родителей. Эти визиты - настоящее испытание для семьи, жизнь которой, казалось бы, протекла в гармонии и любви...
Изображение
MPAA: Изображение - Детям до 13 лет просмотр не желателен
Качество: BDRip
Формат: MKV

Видео: AVC; 1280x688 (1.860); 4767 Kbps; 25 fps; 0,217 bpp
Аудио №1: русский; AC3; 384 Kbps; CBR; 6 ch
Аудио №2: французский; DTS; 1510 Kbps; CBR; 6 ch; 24 bit
"Награды и номинации:"

Оскар, 2013 год
Изображение
Победитель (1):

    Лучший фильм на иностранном языке — «Австрия»

Номинации (4):

    Лучший фильм
    Лучшая женская роль (Эмманюэль Рива)
    Лучший режиссер (Михаэль Ханеке)
    Лучший сценарий

Золотой глобус, 2013 год
Изображение
Победитель (1):

    Лучший фильм на иностранном языке

Британская академия, 2013 год
Изображение
Победитель (2):

    Лучшая женская роль (Эмманюэль Рива)
    Лучший фильм на иностранном языке

Номинации (2):

    Лучший режиссер (Михаэль Ханеке)
    Лучший оригинальный сценарий

Каннский кинофестиваль, 2012 год
Изображение
Победитель (1):

    Золотая пальмовая ветвь

Европейская киноакадемия, 2012 год
Изображение
Победитель (4):

    Лучший фильм
    Лучшая мужская роль (Жан-Луи Трентиньян)
    Лучшая женская роль (Эмманюэль Рива)
    Лучший режиссер (Михаэль Ханеке)

Номинации (2):

    Лучшая операторская работа (Дариус Хонджи)
    Лучшая работа сценариста (Михаэль Ханеке)

Свернуть
"MI"
Формат : Matroska
Размер файла : 5,79 Гбайт
Продолжительность : 2 ч. 1 м.
Общий поток : 6796 Кбит/сек
Название фильма : Amour.2012.720p.BDRip.Liones.[NNM-Club.ru]
Дата кодирования : UTC 2013-02-16 07:49:49
Программа кодирования : mkvmerge v6.0.0 ('Coming Up For Air') built on Jan 20 2013 09:52:00
Библиотека кодирования : libebml v1.3.0 + libmatroska v1.4.0

Видео
Идентификатор : 1
Формат : AVC
Формат/Информация : Advanced Video Codec
Профиль формата : High@L4.1
Параметр CABAC формата : Да
Параметр ReFrames формата : 5 кадры
Идентификатор кодека : V_MPEG4/ISO/AVC
Продолжительность : 2 ч. 1 м.
Битрейт : 4640 Кбит/сек
Ширина : 1280 пикс.
Высота : 688 пикс.
Соотношение сторон : 1,860
Частота кадров : 25,000 кадр/сек
Оригинальная частота кадров : 23,976 кадр/сек
Цветовое пространство : YUV
Подвыборка цветности : 4:2:0
Битовая глубина : 8 бит
Тип развёртки : Прогрессивная
Бит/(Пиксели*Кадры) : 0.211
Размер потока : 4,06 Гбайт (70%)
Библиотека кодирования : x264 core 129 r2245 bc13772
Настройки программы : cabac=1 / ref=5 / deblock=1:0:0 / analyse=0x3:0x113 / me=umh / subme=7 / psy=1 / psy_rd=1.00:0.00 / mixed_ref=1 / me_range=16 / chroma_me=1 / trellis=1 / 8x8dct=1 / cqm=0 / deadzone=21,11 / fast_pskip=0 / chroma_qp_offset=-2 / threads=12 / lookahead_threads=2 / sliced_threads=0 / nr=0 / decimate=1 / interlaced=0 / bluray_compat=0 / constrained_intra=0 / bframes=3 / b_pyramid=2 / b_adapt=1 / b_bias=0 / direct=1 / weightb=1 / open_gop=0 / weightp=2 / keyint=250 / keyint_min=23 / scenecut=40 / intra_refresh=0 / rc_lookahead=40 / rc=2pass / mbtree=1 / bitrate=4640 / ratetol=1.0 / qcomp=0.60 / qpmin=0 / qpmax=69 / qpstep=4 / cplxblur=20.0 / qblur=0.5 / ip_ratio=1.40 / aq=1:1.00
Язык : French

Аудио #1
Идентификатор : 2
Формат : AC-3
Формат/Информация : Audio Coding 3
Расширение режима : CM (complete main)
Идентификатор кодека : A_AC3
Продолжительность : 2 ч. 1 м.
Вид битрейта : Постоянный
Битрейт : 384 Кбит/сек
Канал(ы) : 6 канала(ов)
Расположение каналов : Front: L C R, Side: L R, LFE
Частота : 48,0 КГц
Битовая глубина : 16 бит
Метод сжатия : С потерями
Задержка видео : 24 мс.
Размер потока : 335 Мбайт (6%)
Заголовок : Russian MVO
Язык : Russian

Аудио #2
Идентификатор : 3
Формат : DTS
Формат/Информация : Digital Theater Systems
Идентификатор кодека : A_DTS
Продолжительность : 2 ч. 1 м.
Вид битрейта : Постоянный
Битрейт : 1510 Кбит/сек
Канал(ы) : 6 канала(ов)
Расположение каналов : Front: L C R, Side: L R, LFE
Частота : 48,0 КГц
Битовая глубина : 24 бит
Метод сжатия : С потерями
Размер потока : 1,29 Гбайт (22%)
Заголовок : DTS 5.1
Язык : French


Свернуть
"Скриншоты"
Изображение
Изображение
Изображение
Свернуть




Последний раз редактировалось Karrakat 2013-02-25 12:24, всего редактировалось 2 раз(а).
Не в сети
Профиль  
 Добавлено: 2013-02-17 09:30 (спустя 12 часов)
Руководитель релиз-группы
Аватара пользователя
Стаж: 7 лет 4 месяца
Возраст: 31
Сообщений: 3407
Спасибок: 46729
Лайков: 5
Karrakat
Скриншоты должны быть полноразмерными, без превью
Для DVD и HD-разделов необходимы развернутые технические данные:
Для HD: Отчет BDInfo→ (после нажатия кнопки «scan bitrates» и окончания сканирования) или MediaInfo→ ( весь текст из режима view (вид) → text (текст).) (под спойлером)
Не в сети
Профиль  
 Добавлено: 2013-02-23 10:07 (спустя 6 дней)
Аватара пользователя
Стаж: 9 лет 1 месяц
Возраст: 30
Сообщений: 609
Спасибок: 4435
Лайков: 1
Karrakat
субтитры есть?
_________________
Всё относительно, почти...
[b][url=http://nnportal.org/portal/viewtopic.php?p=2182588#2182588]Мои раздачи[/url][/b]
Не в сети
Профиль  
Начать новую темуОтветить на тему  [ Сообщений: 3 ] 
Вы не можете начинать темы
Вы не можете отвечать на сообщения
Вы не можете редактировать свои сообщения
Вы не можете удалять свои сообщения