Правила форума

  • В этом разделе создание новых тем Запрещено.
  • Для создания новых тем пользуйтесь Корневым разделом DVD и HD фильмы.
Начать новую темуОтветить на тему  [ Сообщений: 3 ] 
Торрент файл
Размер: 8.93 GB • Зарегистрирован: 2 года 1 месяц • Статус: T Временный релиз
Скачан: 60 раз • Желающих скачать: 0 • Поблагодарили: 25 раз
 Раздают: 0  |  0 KB/s  ]   Качают: 0  |  0 KB/s  ] 
 Полного источника не было 4 дня 
Сообщения
 Добавлено: 2014-10-16 19:47
RG-ELEKTRO
Аватара пользователя
Стаж: 2 года 3 месяца
Сообщений: 7928
Спасибок: 53776
Лайков: 3304
Любовь от всех болезней / Supercondriaque


Изображение

Страна: Франция
Студия: Pathé, Les Productions du Ch'timi
Год выхода: 2014
Жанр: Комедия, приключения, драма
Продолжительность: 01:47:29
Перевод: Дублированный (лицензия)

Режиссер: Дани Бун

В ролях: Дани Бун, Кад Мерад, Алис Поль, Жан-Ив Бертело, Жюдит Эль Зейн, Марта Виллалонга, Валери Боннетон, Бруно Лоше, Жером Коммандёр, Джонатан Коэн

О фильме:
Роман Фобер — чудак и ипохондрик. Он никогда не был женат. Вся его жизнь сводится к тому, чтобы выискивать у себя симптомы страшных, на деле не существующих, болезней. Каждой находкой он стремится поделиться со своим единственным другом — доктором Димитрием Звенкой. Димитрий решает помочь Роману найти женщину и таким образом излечить его от постоянной ипохондрии, которая становится невыносимой.

Изображение


Формат: MKV
Качество: BDRip 1080p
Видео: MPEG-4 AVC, 10000 Кбит/с, 1920x800
Звук: Русский (AC3, 6 ch, 384 Кбит/с), английский (DTS, 6 ch, 1509 Кбит/с)
Субтитры: Английские

"Релиз"
Аудио#1: Russian: AC3, 48 kHz, AC3, 3/2 (L,C,R,l,r) + LFE ch, ~384.00 kbps avg - Дублированный (DVD R5)
Аудио#2: English: AC3, 48 kHz, DTS, 3/2 (L,C,R,l,r) + LFE ch, ~1509.00 kbps avg - Оригинал
Субтитры: Английские

ENCODER.........: LEGi0N

x264 [info]: frame I:1424 Avg QP:14.64 size:256795
x264 [info]: frame P:33984 Avg QP:17.64 size:103417
x264 [info]: frame B:119369 Avg QP:19.71 size: 35007
Свернуть

"Инфо-файл"
Формат : Matroska
Версия формата : Version 4 / Version 2
Размер файла : 8,93 Гбайт
Продолжительность : 1 ч. 47 м.
Общий поток : 11,9 Мбит/сек
Название фильма : Supercondriaque.2014.x264.D.BDRip.(1080p).NovaLan
Дата кодирования : UTC 2014-10-16 13:01:56
Программа кодирования : mkvmerge v7.2.0 ('On Every Street') 64bit built on Sep 13 2014 15:52:10
Библиотека кодирования : libebml v1.3.0 + libmatroska v1.4.1
_STATISTICS_WRITING_APP : mkvmerge v7.2.0 ('On Every Street') 64bit built on Sep 13 2014 15:52:10
_STATISTICS_WRITING_DATE_UTC : 2014-10-16 13:01:56
_STATISTICS_TAGS : BPS DURATION NUMBER_OF_FRAMES NUMBER_OF_BYTES
DURATION : 01:47:27.712000000
NUMBER_OF_FRAMES : 201491
NUMBER_OF_BYTES : 309490176

Видео
Идентификатор : 1
Формат : AVC
Формат/Информация : Advanced Video Codec
Профиль формата : High@L4.1
Параметр CABAC формата : Да
Параметр ReFrames формата : 5 кадров
Идентификатор кодека : V_MPEG4/ISO/AVC
Продолжительность : 1 ч. 47 м.
Битрейт : 10000 Кбит/сек
Ширина : 1920 пикселей
Высота : 800 пикселей
Соотношение сторон : 2,40:1
Режим частоты кадров : Постоянный
Частота кадров : 24,000 кадра/сек
Цветовое пространство : YUV
Субдискретизация насыщенности : 4:2:0
Битовая глубина : 8 бит
Тип развёртки : Прогрессивная
Бит/(Пиксели*Кадры) : 0.271
Размер потока : 7,33 Гбайт (82%)
Заголовок : Supercondriaque.2014.x264.D.BDRip.(1080p).LEGi0N
Библиотека кодирования : x264 core 142 r2431 ac76440
Настройки программы : cabac=1 / ref=5 / deblock=1:-1:-1 / analyse=0x3:0x133 / me=umh / subme=9 / psy=1 / psy_rd=1.00:0.30 / mixed_ref=1 / me_range=48 / chroma_me=1 / trellis=2 / 8x8dct=1 / cqm=0 / deadzone=21,11 / fast_pskip=0 / chroma_qp_offset=-4 / threads=6 / lookahead_threads=1 / sliced_threads=0 / nr=0 / decimate=1 / interlaced=0 / bluray_compat=0 / constrained_intra=0 / bframes=8 / b_pyramid=2 / b_adapt=2 / b_bias=0 / direct=3 / weightb=1 / open_gop=0 / weightp=2 / keyint=240 / keyint_min=22 / scenecut=40 / intra_refresh=0 / rc_lookahead=180 / rc=2pass / mbtree=1 / bitrate=10000 / ratetol=1.0 / qcomp=0.60 / qpmin=10 / qpmax=39 / qpstep=4 / cplxblur=20.0 / qblur=0.5 / vbv_maxrate=40000 / vbv_bufsize=30000 / nal_hrd=none / filler=0 / ip_ratio=1.40 / aq=1:0.70
Язык : English
Default : Да
Forced : Нет
Основные цвета : BT.709
Характеристики трансфера : BT.709
Коэффициенты матрицы : BT.709
_STATISTICS_WRITING_APP : mkvmerge v7.2.0 ('On Every Street') 64bit built on Sep 13 2014 15:52:10
_STATISTICS_WRITING_DATE_UTC : 2014-10-16 13:01:56
_STATISTICS_TAGS : BPS DURATION NUMBER_OF_FRAMES NUMBER_OF_BYTES
DURATION : 01:47:29.042000000
NUMBER_OF_FRAMES : 154777
NUMBER_OF_BYTES : 8058998739

Аудио #1
Идентификатор : 2
Формат : AC-3
Формат/Информация : Audio Coding 3
Расширение режима : CM (complete main)
Параметр Endianness формата : Big
Идентификатор кодека : A_AC3
Продолжительность : 1 ч. 47 м.
Вид битрейта : Постоянный
Битрейт : 384 Кбит/сек
Каналы : 6 каналов
Расположение каналов : Front: L C R, Side: L R, LFE
Частота : 48,0 КГц
Битовая глубина : 16 бит
Метод сжатия : С потерями
Размер потока : 295 Мбайт (3%)
Заголовок : Дублированный (DVD R5)
Язык : Russian
Default : Да
Forced : Нет

Аудио #2
Идентификатор : 3
Формат : DTS
Формат/Информация : Digital Theater Systems
Режим : 16
Параметр Endianness формата : Big
Идентификатор кодека : A_DTS
Продолжительность : 1 ч. 47 м.
Вид битрейта : Постоянный
Битрейт : 1509 Кбит/сек
Каналы : 6 каналов
Расположение каналов : Front: L C R, Side: L R, LFE
Частота : 48,0 КГц
Битовая глубина : 24 бит
Метод сжатия : С потерями
Размер потока : 1,13 Гбайт (13%)
Язык : French
Default : Нет
Forced : Нет

Меню
00:00:00.000 : en:00:00:00.000
00:04:13.208 : en:00:04:13.208
00:13:03.542 : en:00:13:03.542
00:21:39.458 : en:00:21:39.458
00:27:37.792 : en:00:27:37.792
00:32:14.042 : en:00:32:14.042
00:37:53.917 : en:00:37:53.917
00:47:02.875 : en:00:47:02.875
00:55:07.542 : en:00:55:07.542
01:03:46.000 : en:01:03:46.000
01:09:01.042 : en:01:09:01.042
01:14:08.750 : en:01:14:08.750
01:24:22.000 : en:01:24:22.000
01:29:13.250 : en:01:29:13.250
01:36:21.833 : en:01:36:21.833
01:42:03.042 : en:01:42:03.042
Свернуть

"Скриншоты"
Изображение
Изображение
Изображение

Свернуть

_________________
Не ищите меня в "ВКонтакте", в "Одноклассниках" меня нет - я на трекерах сижу!
Не в сети
Профиль  
 Добавлено: 2014-10-16 23:36 (спустя 3 часа)
Console V.I.P.
Аватара пользователя
Стаж: 9 лет
Сообщений: 1456
Спасибок: 690
Лайков: 12
обожаю его фильмы, спасибо.
Не в сети
Профиль  
 Добавлено: 2014-10-17 07:35 (спустя 7 часов)
RG-ELEKTRO
Аватара пользователя
Стаж: 2 года 3 месяца
Сообщений: 7928
Спасибок: 53776
Лайков: 3304

vitalll:

обожаю его фильмы, спасибо.
Всегда пожалуйста! :)
_________________
Не ищите меня в "ВКонтакте", в "Одноклассниках" меня нет - я на трекерах сижу!
Не в сети
Профиль  
Начать новую темуОтветить на тему  [ Сообщений: 3 ] 
Вы не можете начинать темы
Вы не можете отвечать на сообщения
Вы не можете редактировать свои сообщения
Вы не можете удалять свои сообщения