Правила форума

  • В этом разделе создание новых тем Запрещено.
  • Для создания новых тем пользуйтесь Корневым разделом DVD и HD фильмы.
Начать новую темуОтветить на тему  [ Сообщений: 2 ] 
Торрент файл
Размер: 6.54 GB • Зарегистрирован: 3 года 6 месяцев • Статус: Проверено
Скачан: 59 раз • Желающих скачать: 0 • Поблагодарили: 17 раз
 Раздают: 0  |  0 KB/s  ]   Качают: 0  |  0 KB/s  ] 
 Полного источника не было 1 год 4 месяца 
Сообщения
 Добавлено: 2013-05-23 07:33
Модератор
Аватара пользователя
Стаж: 8 лет 10 месяцев
Сообщений: 2743
Спасибок: 21518
Лайков: 338
Любовь по-взрослому / This Is 40

Изображение
Год выпуска: 2012
Страна: США
Жанр: комедия
Продолжительность: 134 мин
Перевод: Профессиональный (полное дублирование)
Режиссёр: Джудд Апатоу
Сценарий: Джудд Апатоу
Продюсер: Джудд Апатоу, Бэрри Мендел, Клэйтон Таунсенд
В ролях: Пол Радд, Лесли Манн, Джон Литгоу, Меган Фокс, Джейсон Сигел, Альберт Брукс, Мод Апатоу, Айрис Апатоу, Энни Мумоло, Роберт Шмигель, Шарлин Йи, Хью Финк и др.
Описание: Спин-офф комедии «Немножко беременна» 2007 года. Взгляд на жизнь Пита и Дебби спустя несколько лет после событий первого фильма: к сложностям брака прибавляются финансовые проблемы.
Бюджет: $35 000 000
Сборы в мире: $88 058 786
Изображение
Качество: BDRip 720p
Формат: MKV
Видео кодек: H.264
Аудио кодек: AC3
Видео: 1280x534 (2.40:1), 23.976 fps, x264@L4.1, ~4970 kbps avg, 0.30 bit/pixel
Аудио: 48 kHz, AC3, 3/2 (L,C,R,l,r) + LFE ch, ~384.00 kbps avg
Аудио: 48 kHz, DTS, 3/2 (L,C,R,l,r) + LFE ch, ~1510.00 kbps avg
MediaInfo
General
Complete name : C:\музыка\Новая папка\This.is.40.2012.720p.BluRay.Rus.Eng.x264.mkv
Format : Matroska
File size : 6.54 GiB
Duration : 2h 13mn
Overall bit rate : 7 003 Kbps
Movie name : IRONCLUB
Encoded date : UTC 2013-05-22 18:45:23
Writing application : mkvmerge v5.2.0 ('I can't explain') built on Dec 18 2011 18:12:03
Writing library : libebml v1.2.3 + libmatroska v1.3.0

Video
ID : 1
Format : AVC
Format/Info : Advanced Video Codec
Format profile : High@L4.1
Format settings, CABAC : Yes
Format settings, ReFrames : 12 frames
Muxing mode : Container profile=Unknown@4.1
Codec ID : V_MPEG4/ISO/AVC
Duration : 2h 13mn
Bit rate : 4 969 Kbps
Width : 1 280 pixels
Height : 534 pixels
Display aspect ratio : 2.35:1
Frame rate : 23.976 fps
Resolution : 8 bits
Colorimetry : 4:2:0
Scan type : Progressive
Bits/(Pixel*Frame) : 0.303
Stream size : 4.64 GiB (71%)
Title : This.is.40.2012.720p.BluRay.DTS.x264-IRONCLUB
Writing library : x264 core 132 r2309kMod 3b1f1f7
Encoding settings : cabac=1 / ref=12 / deblock=1:-3:-3 / analyse=0x3:0x113 / me=umh / subme=11 / psy=1 / fade_compensate=0.00 / psy_rd=1.05:0.00 / mixed_ref=1 / me_range=48 / chroma_me=1 / trellis=2 / 8x8dct=1 / cqm=0 / deadzone=21,11 / fast_pskip=0 / chroma_qp_offset=-2 / threads=12 / lookahead_threads=2 / sliced_threads=0 / nr=0 / decimate=1 / interlaced=0 / bluray_compat=0 / constrained_intra=0 / bframes=8 / b_pyramid=2 / b_adapt=2 / b_bias=0 / direct=3 / weightb=1 / open_gop=0 / weightp=2 / keyint=250 / keyint_min=23 / scenecut=40 / intra_refresh=0 / rc_lookahead=60 / rc=crf / mbtree=1 / crf=16.5000 / qcomp=0.90 / qpmin=0 / qpmax=69 / qpstep=4 / vbv_maxrate=50000 / vbv_bufsize=62500 / crf_max=0.0 / nal_hrd=none / ip_ratio=1.30 / aq=1:0.85
Matrix coefficients : BT.709-5, BT.1361, IEC 61966-2-4 709, SMPTE RP177

Audio #1
ID : 2
Format : AC-3
Format/Info : Audio Coding 3
Codec ID : A_AC3
Duration : 2h 13mn
Bit rate mode : Constant
Bit rate : 384 Kbps
Channel(s) : 6 channels
Channel positions : Front: L C R, Side: L R, LFE
Sampling rate : 48.0 KHz
Stream size : 367 MiB (5%)
Title : DD 5.1 @ 384 kbps - Dub, R5
Language : Russian

Audio #2
ID : 3
Format : DTS
Format/Info : Digital Theater Systems
Codec ID : A_DTS
Duration : 2h 13mn
Bit rate mode : Constant
Bit rate : 1 510 Kbps
Channel(s) : 6 channels
Channel positions : Front: L C R, Side: L R, LFE
Sampling rate : 48.0 KHz
Resolution : 24 bits
Stream size : 1.41 GiB (22%)
Title : DTS 5.1 @ 1536 kbps

Text #1
ID : 4
Format : UTF-8
Codec ID : S_TEXT/UTF8
Codec ID/Info : UTF-8 Plain Text
Title : Forced
Language : Russian

Text #2
ID : 5
Format : UTF-8
Codec ID : S_TEXT/UTF8
Codec ID/Info : UTF-8 Plain Text
Language : Russian

Text #3
ID : 6
Format : UTF-8
Codec ID : S_TEXT/UTF8
Codec ID/Info : UTF-8 Plain Text
Title : SDH
Свернуть
Скриншоты
Изображение
Изображение
Изображение
Изображение
Изображение
Изображение
Изображение
Изображение
Изображение
Изображение
Изображение
Изображение
Свернуть
Не в сети
Профиль  
 Добавлено: 2013-06-22 22:17 (спустя 30 дней)
Стаж: 6 лет 9 месяцев
Сообщений: 33
Спасибок: 3
Хороший фильм. 8 из 10. Особенно приятен будет тем, кто уже не первый год женат.
Не в сети
Профиль  
Начать новую темуОтветить на тему  [ Сообщений: 2 ] 
Вы не можете начинать темы
Вы не можете отвечать на сообщения
Вы не можете редактировать свои сообщения
Вы не можете удалять свои сообщения