Правила форума

  • В этом разделе создание новых тем Запрещено.
  • Для создания новых тем пользуйтесь Корневым разделом DVD и HD фильмы.
Начать новую темуОтветить на тему  [ 1 сообщение ] 
Торрент файл
Размер: 12.66 GB • Зарегистрирован: 3 года 6 месяцев • Статус: Проверено
Скачан: 126 раз • Желающих скачать: 0 • Поблагодарили: 31 раз
 Раздают: 1  |  0 KB/s  ]   Качают: 0  |  0 KB/s  ] 
Сообщения
 Добавлено: 2013-05-23 22:39
Аватара пользователя
Стаж: 9 лет 1 месяц
Сообщений: 7986
Спасибок: 122226
Лайков: 1191
Любовь по-взрослому / This Is 40

«The Sort-of Sequel to 'Knocked Up'»

Изображение


Год выпуска: 2012
Страна: Изображение США
Жанр: комедия
Продолжительность: 02:13:44
Субтитры: Русские, английские
Перевод: Профессиональный (полное дублирование) [Лицензия]


Режиссер: Джудд Апатоу
Сценарий: Джудд Апатоу
Продюсер: Джудд Апатоу, Бэрри Мендел, Клэйтон Таунсенд
Оператор: Фидон Папамайкл
Композитор: Джон Брайон

В ролях: Пол Радд, Лесли Манн, Джон Литгоу, Меган Фокс, Альберт Брукс, Мод Апатоу, Айрис Апатоу, Джейсон Сигел, Энни Мумоло, Роберт Шмигель, Шарлин Йи, Хью Финк

Описание: Спин-офф комедии «Немножко беременна» 2007 года. Взгляд на жизнь Пита и Дебби спустя несколько лет после событий первого фильма: к сложностям брака прибавляются финансовые проблемы

Изображение Изображение

Релиз группы: Изображение Раздача группы: Изображение

Качество: BDRip (1080p)
Формат: Matroska
Видео: MPEG-4 AVC, 11.4 Мбит/с, 1920x800
Аудио №1: Русский (AC3, 48,0 КГц, 6 ch, 384 Кбит/c)
Аудио №2: Английский (DTS, 48,0 КГц, 6 ch, 1510 Кбит/c)

MediaInfo
Общее
Уникальный идентификатор : 223315835755738487423325941945731411725 (0xA80110C582E714FA97C100B437546F0D)
Полное имя : C:\Фильмы\This.is.40.2012.1080p.BluRay.Rus.Eng.x264.R.G.Daredevil.mkv
Формат : Matroska
Версия формата : Version 2
Размер файла : 12,7 Гбайт
Продолжительность : 2 ч. 13 м.
Общий поток : 13,5 Мбит/сек
Название фильма : IRONCLUB
Дата кодирования : UTC 2013-05-23 13:18:53
Программа кодирования : mkvmerge v5.2.0 ('I can't explain') built on Dec 18 2011 18:12:03
Библиотека кодирования : libebml v1.2.3 + libmatroska v1.3.0

Видео
Идентификатор : 1
Формат : AVC
Формат/Информация : Advanced Video Codec
Профиль формата : High@L4.1
Параметр CABAC формата : Да
Параметр ReFrames формата : 5 кадров
Идентификатор кодека : V_MPEG4/ISO/AVC
Продолжительность : 2 ч. 13 м.
Битрейт : 11,4 Мбит/сек
Ширина : 1920 пикселей
Высота : 800 пикселей
Соотношение сторон : 2,40:1
Режим частоты кадров : Постоянный
Частота кадров : 23,976 кадра/сек
Цветовое пространство : YUV
Субдискретизация насыщенности : 4:2:0
Битовая глубина : 8 бит
Тип развёртки : Прогрессивная
Бит/(Пиксели*Кадры) : 0.309
Размер потока : 10,6 Гбайт (84%)
Заголовок : This.is.40.2012.1080p.BluRay.DTS.x264-IRONCLUB
Библиотека кодирования : x264 core 133 r2334kMod a3ac64b
Настройки программы : cabac=1 / ref=5 / deblock=1:-3:-3 / analyse=0x3:0x113 / me=umh / subme=10 / psy=1 / fade_compensate=0.00 / psy_rd=1.05:0.00 / mixed_ref=1 / me_range=48 / chroma_me=1 / trellis=2 / 8x8dct=1 / cqm=0 / deadzone=21,11 / fast_pskip=0 / chroma_qp_offset=-2 / threads=12 / lookahead_threads=2 / sliced_threads=0 / nr=0 / decimate=1 / interlaced=0 / bluray_compat=0 / constrained_intra=0 / bframes=8 / b_pyramid=2 / b_adapt=2 / b_bias=0 / direct=3 / weightb=1 / open_gop=0 / weightp=2 / keyint=250 / keyint_min=23 / scenecut=40 / intra_refresh=0 / rc_lookahead=192 / rc=crf / mbtree=0 / crf=17.0000 / qcomp=0.90 / qpmin=0 / qpmax=69 / qpstep=4 / vbv_maxrate=50000 / vbv_bufsize=62500 / crf_max=0.0 / nal_hrd=none / ip_ratio=1.30 / pb_ratio=1.20 / aq=1:0.85
Язык : English
Default : Да
Forced : Да
Коэффициенты матрицы : BT.709

Аудио #1
Идентификатор : 2
Формат : AC-3
Формат/Информация : Audio Coding 3
Расширение режима : CM (complete main)
Параметр Endianness формата : Big
Идентификатор кодека : A_AC3
Продолжительность : 2 ч. 13 м.
Вид битрейта : Постоянный
Битрейт : 384 Кбит/сек
Каналы : 6 каналов
Расположение каналов : Front: L C R, Side: L R, LFE
Частота : 48,0 КГц
Битовая глубина : 16 бит
Метод сжатия : С потерями
Размер потока : 367 Мбайт (3%)
Заголовок : DD 5.1 @ 384 kbps - Dub, R5
Язык : Russian
Default : Да
Forced : Да

Аудио #2
Идентификатор : 3
Формат : DTS
Формат/Информация : Digital Theater Systems
Режим : 16
Параметр Endianness формата : Big
Идентификатор кодека : A_DTS
Продолжительность : 2 ч. 13 м.
Вид битрейта : Постоянный
Битрейт : 1509 Кбит/сек
Каналы : 6 каналов
Расположение каналов : Front: L C R, Side: L R, LFE
Частота : 48,0 КГц
Битовая глубина : 24 бит
Метод сжатия : С потерями
Размер потока : 1,41 Гбайт (11%)
Заголовок : DTS 5.1 @ 1536 kbps
Язык : English
Default : Нет
Forced : Нет

Текст #1
Идентификатор : 4
Формат : UTF-8
Идентификатор кодека : S_TEXT/UTF8
Идентификатор кодека/Информация : UTF-8 Plain Text
Заголовок : Forced
Язык : Russian
Default : Да
Forced : Нет

Текст #2
Идентификатор : 5
Формат : UTF-8
Идентификатор кодека : S_TEXT/UTF8
Идентификатор кодека/Информация : UTF-8 Plain Text
Язык : Russian
Default : Нет
Forced : Нет

Текст #3
Идентификатор : 6
Формат : UTF-8
Идентификатор кодека : S_TEXT/UTF8
Идентификатор кодека/Информация : UTF-8 Plain Text
Заголовок : SDH
Язык : English
Default : Нет
Forced : Нет

Меню
00:00:00.000 : en:00:00:00.000
00:06:54.413 : en:00:06:54.413
00:14:58.188 : en:00:14:58.188
00:21:22.739 : en:00:21:22.739
00:26:22.247 : en:00:26:22.247
00:33:26.963 : en:00:33:26.963
00:40:13.077 : en:00:40:13.077
00:48:30.407 : en:00:48:30.407
00:56:31.179 : en:00:56:31.179
01:01:34.732 : en:01:01:34.732
01:07:10.526 : en:01:07:10.526
01:14:37.347 : en:01:14:37.347
01:24:33.193 : en:01:24:33.193
01:31:19.181 : en:01:31:19.181
01:38:07.715 : en:01:38:07.715
01:46:57.869 : en:01:46:57.869
01:52:14.936 : en:01:52:14.936
01:57:59.655 : en:01:57:59.655
02:04:08.232 : en:02:04:08.232
02:08:37.918 : en:02:08:37.918
Свернуть
Знаете ли вы, что...
Бен и Элисон, главные герои фильма «Немножко беременна» (2007), не появляются в этом как бы продолжении, но есть намеки на них. Картину Элисон можно заметить на стене, и Пит упоминает, что доставал кексы с марихуаной у Бена. Три других персонажа из фильма «Немножко беременна» (2007) также фигурируют в этом фильме: Джоди (Шарлин Йи) — ранее любезная наркоманка, а в этом фильме работник в магазине Дебби; Джейсон (Джейсон Сигел) — ранее лучший друг Бена, а теперь персональный тренер Дебби; Тим Бэгли просто продублировал свою роль акушера-гинеколога Пеллагрино.

Пит (Пол Радд) шутит в фильме, сравнивая свое сексуальное мастерство с мастерством Дэвида Швиммера (и Росса, персонажа Швиммера из сериала «Друзья», 1994-2004). Так он четко дает понять, что он думает, будто и Пит, и Швиммер не очень хороши в постели. Пресс-секретарь Швиммера сказала в газете Chicago Sun-Times, что Швиммера не уведомляли заранее о том, согласен ли он быть объектом этой шутки. Джудд Апатоу пояснил, что не имел в виду ничего оскорбительного. Пол Радд же был частым гостем на съемочной площадке сериала «Друзья» (1994-2004) в течении последних двух сезонов шоу.

Сэди (Мод Апатоу) является большой поклонницей сериала «Остаться в живых» (2004-2010), и Джека (Мэттью Фокса) неоднократно показывают на экране. В фильме «Немножко беременна» (2007) Бен очень пренебрежительно относится к Мэттью Фоксу, говоря, что в нем нет ничего особенного.

Свернуть
Скриншоты
Изображение
Изображение
Изображение
Изображение
Свернуть
Не в сети
Профиль  
Начать новую темуОтветить на тему  [ 1 сообщение ] 
Вы не можете начинать темы
Вы не можете отвечать на сообщения
Вы не можете редактировать свои сообщения
Вы не можете удалять свои сообщения