Правила форума

  • В этом разделе создание новых тем Запрещено.
  • Для создания новых тем пользуйтесь Корневым разделом DVD и HD фильмы.
Начать новую темуОтветить на тему  [ Сообщений: 2 ] 
Торрент файл
Размер: 11.03 GB • Зарегистрирован: 4 года 1 месяц • Статус: Проверено
Скачан: 65 раз • Желающих скачать: 0 • Поблагодарили: 26 раз
 Раздают: 0  |  0 KB/s  ]   Качают: 0  |  0 KB/s  ] 
 Полного источника не было 15 дней 
Сообщения
 Добавлено: 2012-10-17 22:27
Модератор
Аватара пользователя
Стаж: 8 лет 7 месяцев
Сообщений: 4965
Спасибок: 110254
Лайков: 18
Изображение

Любовь с препятствиями / Un bonheur n'arrive jamais seul


Год выпуска: 2012
Страна: Франция

Жанр: мелодрама, комедия
Продолжительность: 01:49:19
Перевод: Дублированный

Режиссер: Джеймс Хат
Сценарий: Джеймс Хат, Соня Шиллито
Продюсер: Ришар Гранпьер, Патрик Батто, Соня Шиллито
Оператор: Стефан Ле Парк
В ролях: Софи Марсо, Гад Эльмалех, Морис Бартелеми, Франсуа Берлеан, Майкл Абитебул, Джули-Энн Рот, Маша Мериль, Франсуа Винчентелли
Сборы в России: $785 269

Мировая премьера: 13 июня 2012
Релиз на DVD: 24 сентября 2012, «Новый Диск»
Релиз на Blu-ray: 24 сентября 2012, «Новый Диск»
Описание: Саша живет беззаботной и легкомысленной жизнью в окружении красивых девушек, друзей и музыки. Шарлота уже дважды успела побывать замужем и больше не собирается повторять своих ошибок. Хотя, как знать. Может, у судьбы свои планы?
Изображение 6.1/10 (352 users) Изображение 7.319 (1473)
Релиз группы Изображение
Раздача группы: Изображение

"NFO"
Формат : Matroska
Версия формата : Version 2
Размер файла : 11,0 Гбайт
Продолжительность : 1 ч. 49 м.
Общий поток : 14,4 Мбит/сек
Название фильма : Un bonheur n'arrive jamais seul (2012) - Release for HDCLUB
Дата кодирования : UTC 2012-10-17 14:47:31
Программа кодирования : mkvmerge v5.8.0 ('No Sleep / Pillow') built on Sep 2 2012 15:37:04
Библиотека кодирования : libebml v1.2.3 + libmatroska v1.3.0

Видео
Идентификатор : 1
Формат : AVC
Формат/Информация : Advanced Video Codec
Профиль формата : High@L4.1
Параметр CABAC формата : Да
Параметр ReFrames формата : 4 кадра
Идентификатор кодека : V_MPEG4/ISO/AVC
Продолжительность : 1 ч. 49 м.
Битрейт : 13,4 Мбит/сек
Ширина : 1920 пикселей
Высота : 1080 пикселей
Соотношение сторон : 16:9
Частота кадров : 23,976 кадра/сек
Цветовое пространство : YUV
Субдискретизация насыщенности : 4:2:0
Битовая глубина : 8 бит
Тип развёртки : Прогрессивная
Бит/(Пиксели*Кадры) : 0.270
Размер потока : 10,2 Гбайт (93%)
Заголовок : Release for HDCLUB
Библиотека кодирования : x264 core 128 r2216 198a7ea
Настройки программы : cabac=1 / ref=4 / deblock=1:-3:-3 / analyse=0x3:0x133 / me=umh / subme=11 / psy=1 / psy_rd=0.90:0.00 / mixed_ref=1 / me_range=48 / chroma_me=1 / trellis=2 / 8x8dct=1 / cqm=0 / deadzone=21,11 / fast_pskip=0 / chroma_qp_offset=-2 / threads=12 / lookahead_threads=2 / sliced_threads=0 / nr=0 / decimate=1 / interlaced=0 / bluray_compat=0 / constrained_intra=0 / bframes=9 / b_pyramid=2 / b_adapt=2 / b_bias=0 / direct=3 / weightb=1 / open_gop=0 / weightp=2 / keyint=240 / keyint_min=24 / scenecut=40 / intra_refresh=0 / rc=crf / mbtree=0 / crf=18.0 / qcomp=0.60 / qpmin=0 / qpmax=69 / qpstep=4 / ip_ratio=1.40 / pb_ratio=1.30 / aq=1:0.80
Язык : French
Default : Да
Forced : Нет

Аудио
Идентификатор : 2
Формат : DTS
Формат/Информация : Digital Theater Systems
Идентификатор кодека : A_DTS
Продолжительность : 1 ч. 49 м.
Вид битрейта : Постоянный
Битрейт : 755 Кбит/сек
Каналы : 6 каналов
Расположение каналов : Front: L C R, Side: L R, LFE
Частота : 48,0 КГц
Битовая глубина : 24 бит
Метод сжатия : С потерями
Размер потока : 590 Мбайт (5%)
Заголовок : (DTS 5.1 @ 768 kbps - Дубляж)
Язык : Russian
Default : Да
Forced : Нет

Меню
00:00:00.000 : :Chapter 01
00:00:00.417 : :Chapter 02
00:03:38.885 : :Chapter 03
00:14:55.185 : :Chapter 04
00:26:38.430 : :Chapter 05
00:38:22.842 : :Chapter 06
00:48:12.806 : :Chapter 07
01:02:07.390 : :Chapter 08
01:16:43.890 : :Chapter 09
01:34:02.470 : :Chapter 10
Свернуть

*Сохранены оригинальные чаптеры как на Blu-Ray
Качество: BDRip 1080p
Формат: AVI

Видео: 1920x1080 at 23.976 fps, x264@L4.1, crf, ~13400 kbps avg
Аудио: 48 kHz, DTS, 3/2 (L,C,R,l,r) + LFE ch, ~768 kbps av
"Скриншоты"

Изображение

Изображение

Изображение

Изображение

Свернуть
_________________
Изображение Изображение Изображение
Билайн / АДС добавляйте ретрекер, чтобы качать на скорости 100 Мбит/с
Cкрытый текст
Изображение
Свернуть
Не в сети
Профиль  
 Добавлено: 2013-09-22 09:57 (спустя 11 месяцев)
Стаж: 7 лет 9 месяцев
Сообщений: 14
Очень легкий фильм с юмором.))) Советую!
Не в сети
Профиль  
Начать новую темуОтветить на тему  [ Сообщений: 2 ] 
Вы не можете начинать темы
Вы не можете отвечать на сообщения
Вы не можете редактировать свои сообщения
Вы не можете удалять свои сообщения