Правила форума

  • В этом разделе создание новых тем Запрещено.
  • Для создания новых тем пользуйтесь Корневым разделом DVD и HD фильмы.
Начать новую темуОтветить на тему  [ 1 сообщение ] 
Торрент файл
Размер: 4.62 GB • Зарегистрирован: 5 лет 1 месяц • Статус: Проверено
Скачан: 24 раза • Желающих скачать: 0 • Поблагодарили: 4 раза
 Раздают: 0  |  0 KB/s  ]   Качают: 0  |  0 KB/s  ] 
 Полного источника не было 2 года 10 месяцев 
Сообщения
 Добавлено: 2011-10-08 17:30
Top-seeder
Аватара пользователя
Стаж: 9 лет
Сообщений: 1399
Спасибок: 28651
Лайков: 8
Лучшая жизнь / A Better Life

Изображение


Год выпуска: 2011
Страна: США
Киностудия: Depth of Field, Lime Orchard Productions, McLaughlin Films
Жанр: драма
Продолжительность: 01:37:31

Перевод: Профессиональный (дублированный)
Субтитры: русский
Оригинальная аудидорожка: английский

Режиссер: Крис Вайц / Chris Weitz

В ролях: Демиан Бишир, Эдди ’Пайолин’ Сотело, Хоакин Косио, Хосе Джулиан, Нэнси Ленехан, Гэбриел Чаварриа, Бобби Сото, Челси Рендон, Трампас Томпсон, Тим Гриффин...

Описание:
Трогательная, проникновенная история о том, как далеко может зайти человек, чтобы вырвать у судьбы шанс на лучшую жизнь для своих близких. Иммиграционные агенты и бандитские группировки — все против него. Но в борьбе за судьбу ребенка любящий родитель готов пройти через невозможное… Ему слишком хорошо известно, как легко в этом городе потерять все и сразу...

Тип релиза: BDRip 720p
Контейнер: MKV

Видео: 1280x720 (16x9), 23.976 fps, H264 ~ 4884 kbps avg, 0.221 bit/pixel
Аудио 1: 48 kHz, Dolby AC3 6 ch 384 kbps Русский
Аудио 2: 48 kHz, DTS 6 ch 1536 kbps Английский
Формат субтитров: SoftSub (srt)

MI
Общее
Уникальный идентификатор : 213011984563769037543389297247500366155 (0xA0409DAF74528C4CAA9D0E58C887F14B)
Полное имя : D:\Закачки\Лучшая жизнь.mkv
Формат : Matroska
Размер файла : 4,62 Гбайт
Продолжительность : 1 ч. 37 м.
Общий поток : 6778 Кбит/сек
Название фильма : Luchshaya.zhizn.2011.D.BDRip.720p
Дата кодирования : UTC 2011-10-07 23:02:52
Программа кодирования : mkvmerge v4.1.1 ('Bouncin' Back') сборка от Jul 3 2010 22:54:08
Библиотека кодирования : libebml v1.0.0 + libmatroska v1.0.0

Видео
Идентификатор : 1
Формат : AVC
Формат/Информация : Advanced Video Codec
Профиль формата : High@L4.1
Параметр CABAC формата : Да
Параметр ReFrames формата : 5 кадров
Идентификатор кодека : V_MPEG4/ISO/AVC
Продолжительность : 1 ч. 37 м.
Битрейт : 4884 Кбит/сек
Ширина : 1280 пикс.
Высота : 720 пикс.
Соотношение сторон : 16:9
Частота кадров : 23,976 кадр/сек
Цветовое пространство : YUV
Подвыборка цветности : 4:2:0
Битовая глубина : 8 бит
Тип развёртки : Прогрессивная
Бит/(Пиксели*Кадры) : 0.221
Размер потока : 3,24 Гбайт (70%)
Заголовок : Источник Blu-ray
Библиотека кодирования : x264 core 116 r2037 f8ebd4a
Настройки программы : cabac=1 / ref=5 / deblock=1:0:0 / analyse=0x3:0x133 / me=umh / subme=7 / psy=1 / psy_rd=1.00:0.00 / mixed_ref=1 / me_range=16 / chroma_me=1 / trellis=1 / 8x8dct=1 / cqm=0 / deadzone=21,11 / fast_pskip=1 / chroma_qp_offset=-2 / threads=12 / sliced_threads=0 / nr=0 / decimate=1 / interlaced=0 / bluray_compat=0 / constrained_intra=0 / bframes=3 / b_pyramid=0 / b_adapt=1 / b_bias=0 / direct=1 / weightb=1 / open_gop=0 / weightp=2 / keyint=240 / keyint_min=24 / scenecut=40 / intra_refresh=0 / rc_lookahead=40 / rc=2pass / mbtree=1 / bitrate=4884 / ratetol=1.0 / qcomp=0.60 / qpmin=0 / qpmax=69 / qpstep=4 / cplxblur=20.0 / qblur=0.5 / ip_ratio=1.40 / aq=1:1.00

Аудио #1
Идентификатор : 2
Формат : AC-3
Формат/Информация : Audio Coding 3
Расширение режима : CM (complete main)
Идентификатор кодека : A_AC3
Продолжительность : 1 ч. 37 м.
Вид битрейта : Постоянный
Битрейт : 384 Кбит/сек
Каналы : 6 каналов
Расположение каналов : Front: L C R, Side: L R, LFE
Частота : 48,0 КГц
Битовая глубина : 16 бит
Метод сжатия : С потерями
Размер потока : 268 Мбайт (6%)
Заголовок : Dolby Digital 5,1
Язык : Russian

Аудио #2
Идентификатор : 3
Формат : DTS
Формат/Информация : Digital Theater Systems
Идентификатор кодека : A_DTS
Продолжительность : 1 ч. 37 м.
Вид битрейта : Постоянный
Битрейт : 1510 Кбит/сек
Каналы : 6 каналов
Расположение каналов : Front: L C R, Side: L R, LFE
Частота : 48,0 КГц
Битовая глубина : 24 бит
Метод сжатия : С потерями
Задержка видео : 11 мс.
Размер потока : 1,03 Гбайт (22%)
Заголовок : DTS 5.1

Текст
Идентификатор : 4
Формат : UTF-8
Идентификатор кодека : S_TEXT/UTF8
Идентификатор кодека/Информация : UTF-8 Plain Text
Язык : Russian

Меню
00:00:00.000 : en:00:00:00.000
00:04:48.955 : en:00:04:48.955
00:08:50.447 : en:00:08:50.447
00:13:43.281 : en:00:13:43.281
00:19:43.307 : en:00:19:43.307
00:27:10.671 : en:00:27:10.671
00:35:39.387 : en:00:35:39.387
00:40:43.232 : en:00:40:43.232
00:45:03.576 : en:00:45:03.576
00:51:02.518 : en:00:51:02.518
00:57:58.934 : en:00:57:58.934
01:03:14.624 : en:01:03:14.624
01:07:02.977 : en:01:07:02.977
01:14:03.689 : en:01:14:03.689
01:16:28.459 : en:01:16:28.459
01:20:45.382 : en:01:20:45.382
01:25:04.599 : en:01:25:04.599
01:31:38.993 : en:01:31:38.993

Свернуть
Скриншоты
ИзображениеИзображениеИзображениеИзображениеИзображение
Свернуть
Не в сети
Профиль  
Начать новую темуОтветить на тему  [ 1 сообщение ] 
Вы не можете начинать темы
Вы не можете отвечать на сообщения
Вы не можете редактировать свои сообщения
Вы не можете удалять свои сообщения