Правила форума

  • В этом разделе создание новых тем Запрещено.
  • Для создания новых тем пользуйтесь Корневым разделом DVD и HD фильмы.
Начать новую темуОтветить на тему  [ Сообщений: 3 ] 
Торрент файл
Размер: 9.06 GB • Зарегистрирован: 1 год 10 месяцев • Статус: Проверено
Скачан: 71 раз • Желающих скачать: 0 • Поблагодарили: 13 раз
 Раздают: 0  |  0 KB/s  ]   Качают: 0  |  0 KB/s  ] 
 Полного источника не было 1 день 6 часов 
Сообщения
 Добавлено: 2015-01-18 12:52
DVD Release Group
Аватара пользователя
Стаж: 7 лет 1 месяц
Сообщений: 3548
Спасибок: 247042
Лайков: 1018
Лучшее во мне

The Best of Me


Изображение


Год выпуска: 2014
Страна: США
Жанр: Драма, мелодрама
Продолжительность: 01:57:40
Перевод: Профессиональный (полное дублирование)
Режиссер: Майкл Хоффман
В ролях: Джеймс Марсден, Мишель Монахэн, Лиана Либерато, Люк Брейси, Джералд МакРэйни, Кэролайн Гудолл, Скайлер Фиск, Джон Тенни, Себастьян
Описание: История о двух бывших возлюбленных подростках. Никто из них не жил жизнью, которую они представляли и никто не может забыть страстную первую любовь, которая изменила всю жизнь. И вот обоих зовут на похороны их наставника, который когда-то дал им приют…
Изображение
Качество: BDRip 1080p
Формат: MKV
Видео кодек: H.264
Аудио кодек: AC3, DTS
Видео: 1920x800 23.98fps 9115kbps
Аудио:
Аудио Rus: AC3 48kHz 6ch 384kbps
Аудио Eng: DTS 48kHz 6ch 1510kbps
"MediaInfo"
Формат : Matroska
Версия формата : Version 2
Размер файла : 9,06 Гбайт
Продолжительность : 1 ч. 57 м.
Общий поток : 11,0 Мбит/сек
Название фильма : Luchshee.vo.mne.2014.D.BDRip.1080p.uniongang.tv[3imeMachi9e]
Дата кодирования : UTC 2015-01-17 19:54:47
Программа кодирования : mkvmerge v5.0.1 ('Es ist Sommer') built on Nov 6 2011 16:23:40
Библиотека кодирования : libebml v1.2.2 + libmatroska v1.3.0

Видео
Идентификатор : 1
Формат : AVC
Формат/Информация : Advanced Video Codec
Профиль формата : High@L4.1
Параметр CABAC формата : Да
Параметр ReFrames формата : 5 кадров
Идентификатор кодека : V_MPEG4/ISO/AVC
Продолжительность : 1 ч. 57 м.
Битрейт : 9115 Кбит/сек
Ширина : 1920 пикселей
Высота : 800 пикселей
Соотношение сторон : 2,40:1
Режим частоты кадров : Постоянный
Частота кадров : 23,976 кадра/сек
Цветовое пространство : YUV
Субдискретизация насыщенности : 4:2:0
Битовая глубина : 8 бит
Тип развёртки : Прогрессивная
Бит/(Пиксели*Кадры) : 0.248
Размер потока : 7,32 Гбайт (81%)
Заголовок : Luchshee.vo.mne.2014.D.BDRip.1080p.uniongang.tv[3imeMachi9e]
Библиотека кодирования : x264 core 144 r2525 40bb568
Настройки программы : cabac=1 / ref=5 / deblock=1:0:0 / analyse=0x3:0x133 / me=umh / subme=7 / psy=1 / psy_rd=1.00:0.00 / mixed_ref=1 / me_range=16 / chroma_me=1 / trellis=1 / 8x8dct=1 / cqm=0 / deadzone=21,11 / fast_pskip=0 / chroma_qp_offset=-2 / threads=18 / lookahead_threads=3 / sliced_threads=0 / nr=0 / decimate=1 / interlaced=0 / bluray_compat=0 / constrained_intra=0 / bframes=3 / b_pyramid=2 / b_adapt=1 / b_bias=0 / direct=1 / weightb=1 / open_gop=0 / weightp=2 / keyint=250 / keyint_min=23 / scenecut=40 / intra_refresh=0 / rc_lookahead=40 / rc=2pass / mbtree=1 / bitrate=9115 / ratetol=1.0 / qcomp=0.60 / qpmin=0 / qpmax=69 / qpstep=4 / cplxblur=20.0 / qblur=0.5 / ip_ratio=1.40 / aq=1:1.00
Язык : English
Default : Да
Forced : Нет

Аудио #1
Идентификатор : 2
Формат : AC-3
Формат/Информация : Audio Coding 3
Расширение режима : CM (complete main)
Параметр Endianness формата : Big
Идентификатор кодека : A_AC3
Продолжительность : 1 ч. 57 м.
Вид битрейта : Постоянный
Битрейт : 384 Кбит/сек
Каналы : 6 каналов
Расположение каналов : Front: L C R, Side: L R, LFE
Частота : 48,0 КГц
Битовая глубина : 16 бит
Метод сжатия : С потерями
Размер потока : 324 Мбайт (3%)
Заголовок : Luchshee.vo.mne.2014.D.BDRip.1080p.uniongang.tv[3imeMachi9e]
Язык : Russian
Default : Да
Forced : Нет

Аудио #2
Идентификатор : 3
Формат : DTS
Формат/Информация : Digital Theater Systems
Режим : 16
Параметр Endianness формата : Big
Идентификатор кодека : A_DTS
Продолжительность : 1 ч. 57 м.
Вид битрейта : Постоянный
Битрейт : 1509 Кбит/сек
Каналы : 6 каналов
Расположение каналов : Front: L C R, Side: L R, LFE
Частота : 48,0 КГц
Битовая глубина : 24 бит
Метод сжатия : С потерями
Размер потока : 1,24 Гбайт (14%)
Заголовок : Luchshee.vo.mne.2014.D.BDRip.1080p.uniongang.tv[3imeMachi9e]
Язык : English
Default : Нет
Forced : Нет

Меню
00:00:00.000 : en:00:00:00.000
00:05:11.520 : en:00:05:11.520
00:11:17.051 : en:00:11:17.051
00:14:13.853 : en:00:14:13.853
00:19:56.278 : en:00:19:56.278
00:24:32.388 : en:00:24:32.388
00:28:30.375 : en:00:28:30.375
00:30:40.881 : en:00:30:40.881
00:35:34.299 : en:00:35:34.299
00:39:33.997 : en:00:39:33.997
00:45:15.630 : en:00:45:15.630
00:51:31.880 : en:00:51:31.880
00:58:25.919 : en:00:58:25.919
01:04:35.121 : en:01:04:35.121
01:08:27.895 : en:01:08:27.895
01:14:44.313 : en:01:14:44.313
01:21:56.453 : en:01:21:56.453
01:29:52.095 : en:01:29:52.095
01:32:59.616 : en:01:32:59.616
01:36:39.168 : en:01:36:39.168
01:40:49.043 : en:01:40:49.043
01:46:25.504 : en:01:46:25.504
01:49:18.844 : en:01:49:18.844
01:51:09.580 : en:01:51:09.580
Свернуть

"Скриншоты"
Изображение
Изображение
Изображение
Свернуть
 Prov1zoR нравится это.
Не в сети
Профиль  
 Добавлено: 2015-03-04 15:59 (спустя 1 месяц 17 дней)
Стаж: 2 года 11 месяцев
Сообщений: 265
Лайков: 57
мегашлак . не смотрите это люди
Не в сети
Профиль  
 Добавлено: 2015-03-04 21:23 (спустя 5 часов)
Стаж: 8 лет 6 месяцев
Сообщений: 33
Лайков: 1
Нормальное кинцо на вечер))) :a_g_a:
Не в сети
Профиль  
Начать новую темуОтветить на тему  [ Сообщений: 3 ] 
Вы не можете начинать темы
Вы не можете отвечать на сообщения
Вы не можете редактировать свои сообщения
Вы не можете удалять свои сообщения