Правила форума

  • В этом разделе создание новых тем Запрещено.
  • Для создания новых тем пользуйтесь Корневым разделом DVD и HD фильмы.
Начать новую темуОтветить на тему  [ Сообщений: 2 ] 
Торрент файл
Размер: 4.37 GB • Зарегистрирован: 2 года 1 месяц • Статус: Проверено
Скачан: 180 раз • Желающих скачать: 0 • Поблагодарили: 49 раз
 Раздают: 0  |  0 KB/s  ]   Качают: 0  |  0 KB/s  ] 
 Полного источника не было 1 час 14 минут 
Сообщения
 Добавлено: 2014-10-04 08:00
RG-ELEKTRO
Аватара пользователя
Стаж: 2 года 3 месяца
Сообщений: 7928
Спасибок: 53742
Лайков: 3304
Люди Икс: Дни минувшего будущего / X-Men: Days of Future Past


Изображение



    Год выхода:2014
    Выпущено:20th Century Fox Film Corporation, Bad Hat Harry Productions, Marvel Entertainment, Marv Films, Dune Entertainment
    Страна:США
    Жанр:Фантастика, фэнтези, боевик, приключения
    Продолжительность:02:11:35
    Перевод:Дублированный (Лицензия)

    Режиссер:Брайан Сингер

    В ролях:Хью Джекман, Иэн МакКеллен, Патрик Стюарт, Холли Берри, Майкл Фассбендер, Джеймс МакЭвой, Анна Пакуин, Эллен Пейдж, Шон Эшмор, Дженнифер Лоуренс, Николас Холт, Питер Динклэйдж, Омар Си, Бинбин Фань



    Сюжет фильма
    В недалёком будущем мутанты близки к истреблению роботами-охотниками на мутантов Стражами. Единственная надежда для мутантов выжить - предотвратить череду роковых событий, приведших к появлению Стражей. С помощью своих способностей, Китти Прайд перемещает сознание Росомахи в его молодое тело в 1973 год. В прошлом всё оказывается не так радужно: молодой Профессор Икс окончательно разочарован в своих идеях, Магнето содержится в тюрьме глубоко под землёй, а человечество не знает как реагировать на широкое появление мутантов...




    Кодек:x264
    Формат:MKV
    Качество:BDRip 720p(Источник: Blu-ray)
    Видео:MPEG-4 AVC(2.40:1) 1280x534 pix, 23.976 fps, 3860 kbps, 0.236 Bits/Pixel
    Аудио I:Dolby Digital(5.1) 16 bit, 48 kHz, 448 kbps(DUB)
    Аудио II:Dolby Digital(5.1) 16 bit, 48 kHz, 448 kbps(ENG "Original")
    Субтитры:SRTРусские (форсированные, полные), Английские
    Меню:Сохранены оригинальные чаптерыBlu-ray

"Скриншоты"
Изображение
Изображение
Изображение
Свернуть
"MI & x264"
General
Unique ID : 232269774524628695906292836738617406300 (0xAEBD88096443FCB2A32F0F4D76C1735C)
Format : Matroska
Format version : Version 2
File size : 4.37 GiB
Duration : 2h 11mn
Overall bit rate : 4 758 Kbps
Movie name : Люди Икс (2014) BDRip (720p)
Encoded date : UTC 2014-10-04 01:21:29
Writing application : mkvmerge v5.8.0 ('No Sleep / Pillow') built on Sep 2 2012 15:37:04
Writing library : libebml v1.2.3 + libmatroska v1.3.0

Video
ID : 1
Format : AVC
Format/Info : Advanced Video Codec
Format profile : High@L4.1
Format settings, CABAC : Yes
Format settings, ReFrames : 9 frames
Codec ID : V_MPEG4/ISO/AVC
Duration : 2h 11mn
Bit rate : 3 860 Kbps
Width : 1 280 pixels
Height : 534 pixels
Display aspect ratio : 2.40:1
Frame rate mode : Constant
Frame rate : 23.976 fps
Color space : YUV
Chroma subsampling : 4:2:0
Bit depth : 8 bits
Scan type : Progressive
Bits/(Pixel*Frame) : 0.236
Stream size : 3.46 GiB (79%)
Title : Release by Alex260680
Writing library : x264 core 142 r2479 dd79a61
Encoding settings : cabac=1 / ref=9 / deblock=1:-3:-3 / analyse=0x3:0x133 / me=umh / subme=11 / psy=1 / psy_rd=1.00:0.00 / mixed_ref=1 / me_range=32 / chroma_me=1 / trellis=2 / 8x8dct=1 / cqm=0 / deadzone=21,11 / fast_pskip=0 / chroma_qp_offset=-2 / threads=6 / lookahead_threads=1 / sliced_threads=0 / nr=0 / decimate=0 / interlaced=0 / bluray_compat=0 / constrained_intra=0 / bframes=9 / b_pyramid=2 / b_adapt=2 / b_bias=0 / direct=3 / weightb=1 / open_gop=0 / weightp=2 / keyint=240 / keyint_min=23 / scenecut=40 / intra_refresh=0 / rc=2pass / mbtree=0 / bitrate=3860 / ratetol=1.0 / qcomp=0.60 / qpmin=0 / qpmax=69 / qpstep=4 / cplxblur=20.0 / qblur=0.5 / ip_ratio=1.40 / pb_ratio=1.30 / aq=1:0.70
Language : English
Default : Yes
Forced : No

Audio #1
ID : 2
Format : AC-3
Format/Info : Audio Coding 3
Mode extension : CM (complete main)
Format settings, Endianness : Big
Codec ID : A_AC3
Duration : 2h 11mn
Bit rate mode : Constant
Bit rate : 448 Kbps
Channel(s) : 6 channels
Channel positions : Front: L C R, Side: L R, LFE
Sampling rate : 48.0 KHz
Bit depth : 16 bits
Compression mode : Lossy
Stream size : 422 MiB (9%)
Title : DUB
Language : Russian
Default : Yes
Forced : No

Audio #2
ID : 3
Format : AC-3
Format/Info : Audio Coding 3
Mode extension : CM (complete main)
Format settings, Endianness : Big
Codec ID : A_AC3
Duration : 2h 11mn
Bit rate mode : Constant
Bit rate : 448 Kbps
Channel(s) : 6 channels
Channel positions : Front: L C R, Side: L R, LFE
Sampling rate : 48.0 KHz
Bit depth : 16 bits
Compression mode : Lossy
Stream size : 422 MiB (9%)
Title : Original
Language : English
Default : No
Forced : No

Text #1
ID : 4
Format : UTF-8
Codec ID : S_TEXT/UTF8
Codec ID/Info : UTF-8 Plain Text
Title : Forced
Language : Russian
Default : Yes
Forced : No

Text #2
ID : 5
Format : UTF-8
Codec ID : S_TEXT/UTF8
Codec ID/Info : UTF-8 Plain Text
Title : Full
Language : Russian
Default : No
Forced : No

Text #3
ID : 6
Format : UTF-8
Codec ID : S_TEXT/UTF8
Codec ID/Info : UTF-8 Plain Text
Title : Full
Language : English
Default : No
Forced : No

Menu
00:00:00.000 : en:Chapter 01
00:03:33.338 : en:Chapter 02
00:08:00.689 : en:Chapter 03
00:10:28.628 : en:Chapter 04
00:13:58.046 : en:Chapter 05
00:17:02.021 : en:Chapter 06
00:20:16.090 : en:Chapter 07
00:22:11.330 : en:Chapter 08
00:26:37.888 : en:Chapter 09
00:30:32.039 : en:Chapter 10
00:34:29.776 : en:Chapter 11
00:36:00.992 : en:Chapter 12
00:38:18.087 : en:Chapter 13
00:40:37.101 : en:Chapter 14
00:45:53.793 : en:Chapter 15
00:48:53.848 : en:Chapter 16
00:51:58.157 : en:Chapter 17
00:54:43.113 : en:Chapter 18
00:57:51.426 : en:Chapter 19
01:00:48.186 : en:Chapter 20
01:03:26.594 : en:Chapter 21
01:07:09.567 : en:Chapter 22
01:09:43.596 : en:Chapter 23
01:13:11.470 : en:Chapter 24
01:15:31.861 : en:Chapter 25
01:17:27.726 : en:Chapter 26
01:19:30.099 : en:Chapter 27
01:24:50.711 : en:Chapter 28
01:26:58.255 : en:Chapter 29
01:31:04.250 : en:Chapter 30
01:34:03.680 : en:Chapter 31
01:37:33.181 : en:Chapter 32
01:41:54.817 : en:Chapter 33
01:44:52.995 : en:Chapter 34
01:47:19.808 : en:Chapter 35
01:51:29.766 : en:Chapter 36
01:56:42.746 : en:Chapter 37
02:00:12.414 : en:Chapter 38
02:02:34.973 : en:Chapter 39
02:10:31.907 : en:Chapter 40
x264 [info]: frame I:2021 Avg QP:14.36 size:116061
x264 [info]: frame P:48452 Avg QP:17.80 size: 36558
x264 [info]: frame B:138825 Avg QP:19.37 size: 12992
Свернуть

_________________
Не ищите меня в "ВКонтакте", в "Одноклассниках" меня нет - я на трекерах сижу!
Не в сети
Профиль  
 Добавлено: 2014-10-13 17:59 (спустя 9 дней)
Стаж: 8 лет 10 месяцев
Сообщений: 619
Лайков: 34
зрелищно, интересно, понравилось
В сети
Профиль  
Начать новую темуОтветить на тему  [ Сообщений: 2 ] 
Вы не можете начинать темы
Вы не можете отвечать на сообщения
Вы не можете редактировать свои сообщения
Вы не можете удалять свои сообщения