Правила форума

  • В этом разделе создание новых тем Запрещено.
  • Для создания новых тем пользуйтесь Корневым разделом DVD и HD фильмы.
Начать новую темуОтветить на тему  [ Сообщений: 2 ] 
Торрент файл
Размер: 6.57 GB • Зарегистрирован: 5 лет 7 месяцев • Статус: Проверено
Скачан: 141 раз • Желающих скачать: 0 • Поблагодарили: 25 раз
 Раздают: 0  |  0 KB/s  ]   Качают: 0  |  0 KB/s  ] 
 Полного источника не было 9 дней 
Сообщения
 Добавлено: 2011-04-03 18:38
Аватара пользователя
Стаж: 7 лет 5 месяцев
Возраст: 30
Сообщений: 43
Спасибок: 810
Люди Икс: Начало. Росомаха / X-Men Origins: Wolverine

Изображение


Год выпуска: 2009
Страна: США
Жанр: фантастика, боевик, триллер, фэнтези
Продолжительность: 01:47:24
Перевод: Профессиональный (полное дублирование)

Режиссёр: Гэвин Худ / Gavin Hood

В ролях: Хью Джекман, Лив Шрайбер, Дэнни Хьюстон, Уилл Ай Эм, Линн Коллинз, Кевин Дюран, Доминик Монахэн, Тейлор Китч, Дэниэл Хенни, Райан Рейнольдс, Скотт Эдкинс, Тим Пакок, Джулия Блейк, Макс Каллен, Трой Сайван, Майкл - Джеймс Олсен, Питер О`Брайэн, Аарон Джеффри, Элис Паркинсон, Филип А. Паттерсон, Энтони Ги

Описание: Экранизация известного американского комикса, рассказывающая предысторию одного из людей-Х, Логана, обладателя адамантового скелета. Логан-Росомаха просыпается в своей хижине в лесу, где он работает дровосеком. К нему заявляются два «человека в черном», работающие на правительство, и предлагают сотрудничество. Опасный мутант Виктор Крид, известный как Саблезубый, совершил побег из тюрьмы и теперь расправляется с другими мутантами. Чтобы справиться с ним, нужен мутант, равный ему по силе. Росомаха отказывается принимать участие в государственных интригах. Его вполне устраивает мирная жизнь в глуши. Он встречается с местной учительницей, они счастливы вместе - зачем ему воевать с другими мутантами? Но вскоре Саблезубый сам выходит на тропу войны против Росомахи: он убивает его возлюбленную, чтобы спровоцировать его на поединок...


Качество: BDRip 720p
Формат: MKV
Видео кодек: H264 (AVC)
Аудио кодек: DTS
Видео: 1280x544 at 23.976 fps, x264@L4.1, ~6832 Kbps
Аудио #1: Russian: 48 kHz, DTS, 3/2 (L,C,R,l,r) + LFE ch, ~768.00 kbps
Аудио #2: Ukrainian: 48 kHz, AC3, 3/2 (L,C,R,l,r) + LFE ch, ~384.00 kbps
Аудио #3: English: 48 kHz, DTS, 3/2 (L,C,R,l,r) + LFE ch, ~768.00 kbps
Субтитры:Russian, Ukrainian, English

Mediainfo
General
Complete name X-Men.Origins.Wolverine.2009.720p.DTS.BluRay.Rus.Eng.HDCLUB.mkv
Format : Matroska
File size : 6.57 GiB
Duration : 1h 47mn
Overall bit rate : 8 755 Kbps
Movie name : X-Men Origins Wolverine (2009) - Release foe HDCLUB
Encoded date : UTC 2009-08-27 15:17:35
Writing application : mkvmerge v2.9.7 ('Tenderness') built on Jul 1 2009 18:43:35
Writing library : libebml v0.7.7 + libmatroska v0.8.1

Video
ID : 1
Format : AVC
Format/Info : Advanced Video Codec
Format profile : High@L4.1
Format settings, CABAC : Yes
Format settings, ReFrames : 8 frames
Muxing mode : Container profile=Unknown@4.1
Codec ID : V_MPEG4/ISO/AVC
Duration : 1h 47mn
Bit rate : 6 688 Kbps
Nominal bit rate : 6 832 Kbps
Width : 1 280 pixels
Height : 544 pixels
Display aspect ratio : 2.35
Frame rate : 23.976 fps
Resolution : 24 bits
Colorimetry : 4:2:0
Scan type : Progressive
Bits/(Pixel*Frame) : 0.401
Stream size : 5.01 GiB (76%)
Title : Release for HDCLUB
Writing library : x264 core 72 r1232 c8edc12
Encoding settings : cabac=1 / ref=8 / deblock=1:-1:-2 / analyse=0x3:0x113 / me=umh / subme=10 / psy=1 / psy_rd=1.0:0.0 / mixed_ref=1 / me_range=32 / chroma_me=1 / trellis=2 / 8x8dct=1 / cqm=0 / deadzone=21,11 / chroma_qp_offset=-2 / threads=12 / nr=0 / decimate=0 / mbaff=0 / bframes=3 / b_pyramid=0 / b_adapt=2 / b_bias=0 / direct=3 / wpredb=1 / keyint=250 / keyint_min=25 / scenecut=40 / rc=2pass / mbtree=0 / bitrate=6832 / ratetol=1.0 / qcomp=0.60 / qpmin=10 / qpmax=51 / qpstep=4 / cplxblur=20.0 / qblur=0.5 / ip_ratio=1.40 / pb_ratio=1.30 / aq=1:0.80
Language : English

Audio #1
ID : 2
Format : DTS
Format/Info : Digital Theater Systems
Codec ID : A_DTS
Duration : 1h 47mn
Bit rate mode : Constant
Bit rate : 755 Kbps
Channel(s) : 6 channels
Channel positions : Front: L C R, Surround: L R, LFE
Sampling rate : 48.0 KHz
Resolution : 24 bits
Stream size : 580 MiB (9%)
Title : DTS 5.1 768 kbps Дубляж - Blu-Ray #1
Language : Russian

Audio #2
ID : 3
Format : AC-3
Format/Info : Audio Coding 3
Codec ID : A_AC3
Duration : 1h 47mn
Bit rate mode : Constant
Bit rate : 384 Kbps
Channel(s) : 6 channels
Channel positions : Front: L C R, Surround: L R, LFE
Sampling rate : 48.0 KHz
Stream size : 295 MiB (4%)
Title : AC3 5.1 384 kbps Дубляж #2
Language : Ukrainian

Audio #3
ID : 4
Format : DTS
Format/Info : Digital Theater Systems
Codec ID : A_DTS
Duration : 1h 47mn
Bit rate mode : Constant
Bit rate : 755 Kbps
Channel(s) : 6 channels
Channel positions : Front: L C R, Surround: L R, LFE
Sampling rate : 48.0 KHz
Resolution : 24 bits
Stream size : 580 MiB (9%)
Title : DTS 5.1 768 kbps Original track #3
Language : English

Text #1
ID : 5
Format : UTF-8
Codec ID : S_TEXT/UTF8
Codec ID/Info : UTF-8 Plain Text
Language : Russian

Text #2
ID : 6
Format : UTF-8
Codec ID : S_TEXT/UTF8
Codec ID/Info : UTF-8 Plain Text
Language : Russian

Text #3
ID : 7
Format : UTF-8
Codec ID : S_TEXT/UTF8
Codec ID/Info : UTF-8 Plain Text
Language : Ukrainian

Text #4
ID : 8
Format : UTF-8
Codec ID : S_TEXT/UTF8
Codec ID/Info : UTF-8 Plain Text
Language : English
Свернуть


Скриншоты
Изображение
Изображение
Изображение
Изображение
Изображение
Изображение
Свернуть


Последний раз редактировалось TEStarostina 2011-04-08 14:14, всего редактировалось 4 раз(а).
Не в сети
Профиль  
 Добавлено: 2011-04-12 11:51 (спустя 8 дней)
Аватара пользователя
Стаж: 7 лет 5 месяцев
Возраст: 30
Сообщений: 43
Спасибок: 810
Торрент файл перезалит,обновите!
Не в сети
Профиль  
Начать новую темуОтветить на тему  [ Сообщений: 2 ] 
Вы не можете начинать темы
Вы не можете отвечать на сообщения
Вы не можете редактировать свои сообщения
Вы не можете удалять свои сообщения