Правила форума

  • В этом разделе создание новых тем Запрещено.
  • Для создания новых тем пользуйтесь Корневым разделом DVD и HD фильмы.
Начать новую темуОтветить на тему  [ Сообщений: 3 ] 
Торрент файл
Размер: 14.5 GB • Зарегистрирован: 5 лет 5 месяцев • Статус: Проверено
Скачан: 130 раз • Желающих скачать: 0 • Поблагодарили: 29 раз
 Раздают: 0  |  0 KB/s  ]   Качают: 0  |  0 KB/s  ] 
 Полного источника не было 6 месяцев 
Сообщения
 Добавлено: 2011-06-14 09:36
Top-releaser
Аватара пользователя
Стаж: 6 лет 7 месяцев
Сообщений: 2078
Спасибок: 3230
Лайков: 9
Люди Икс: Начало. Росомаха / X-Men Origins: Wolverine

Изображение

Год выпуска: 2009
Страна: США
Жанр: фантастика, боевик, триллер, фэнтези
Продолжительность: 01:47:24
Перевод: Профессиональный (полное дублирование)
Режиссёр: Гэвин Худ
В ролях: Хью Джекман, Лив Шрайбер, Дэнни Хьюстон, Уилл Ай Эм, Линн Коллинз, Кевин Дюран, Доминик Монахэн, Тейлор Китч, Дэниэл Хенни, Райан Рейнольдс, Скотт Эдкинс, Тим Пакок, Джулия Блейк, Макс Каллен, Трой Сайван, Майкл - Джеймс Олсен, Питер О`Брайэн, Аарон Джеффри, Элис Паркинсон, Филип А. Паттерсон, Энтони Ги.
Описание: Экранизация известного американского комикса, рассказывающая предысторию одного из людей-Х, Логана, обладателя адамантового скелета. Логан-Росомаха просыпается в своей хижине в лесу, где он работает дровосеком. К нему заявляются два «человека в черном», работающие на правительство, и предлагают сотрудничество. Опасный мутант Виктор Крид, известный как Саблезубый, совершил побег из тюрьмы и теперь расправляется с другими мутантами. Чтобы справиться с ним, нужен мутант, равный ему по силе. Росомаха отказывается принимать участие в государственных интригах. Его вполне устраивает мирная жизнь в глуши. Он встречается с местной учительницей, они счастливы вместе - зачем ему воевать с другими мутантами? Но вскоре Саблезубый сам выходит на тропу войны против Росомахи: он убивает его возлюбленную, чтобы спровоцировать его на поединок...

Качество: BDRip
Формат: MKV
Видео кодек: H.264
Аудио кодек: DTS
Видео: 1920x818 (2.35:1) at 23.976 fps, x264, ~17787 Kbps
Аудио #1: 48,0 КГц, DTS 5.1, 768 Кбит/сек |Дубляж|с Blu-ray
Аудио #2: 48,0 КГц, DTS 5.1, 768 Кбит/сек |Oригинал|
Субтитры: English, Russian, Russian (надписи)
MediaInfo
General
Unique ID : 214934493331576631097800523186194701162 (0xA1B2E0AF90743321B716C3C654DD5B6A)
Complete name : K:\Люди Икс Начало. Росомаха\X-Men.Origins.Wolverine.1080p.mkv
Format : Matroska
File size : 14.5 GiB
Duration : 1h 47mn
Overall bit rate : 19.3 Mbps
Encoded date : UTC 2009-09-05 19:25:16
Writing application : mkvmerge v2.5.1 ('He Wasn't There') built on Feb 22 2009 18:19:47
Writing library : libebml v0.7.7 + libmatroska v0.8.1

Video
ID : 1
Format : AVC
Format/Info : Advanced Video Codec
Format profile : High@L4.1
Format settings, CABAC : Yes
Format settings, ReFrames : 4 frames
Codec ID : V_MPEG4/ISO/AVC
Duration : 1h 47mn
Bit rate : 17.8 Mbps
Width : 1 920 pixels
Height : 818 pixels
Display aspect ratio : 2.35:1
Frame rate : 23.976 fps
Color space : YUV
Chroma subsampling : 4:2:0
Bit depth : 8 bits
Scan type : Progressive
Bits/(Pixel*Frame) : 0.472
Stream size : 13.1 GiB (90%)
Writing library : x264 core 72 r1232M c8edc12
Encoding settings : cabac=1 / ref=4 / deblock=1:-3:-3 / analyse=0x3:0x133 / me=umh / subme=10 / psy=1 / psy_rd=1.9:0.1 / mixed_ref=1 / me_range=64 / chroma_me=1 / trellis=2 / 8x8dct=1 / cqm=2 / deadzone=21,11 / chroma_qp_offset=-3 / threads=12 / nr=0 / decimate=0 / mbaff=0 / bframes=9 / b_pyramid=1 / b_adapt=2 / b_bias=0 / direct=3 / wpredb=1 / keyint=250 / keyint_min=25 / scenecut=40 / rc=2pass / mbtree=0 / bitrate=17787 / ratetol=1.0 / qcomp=0.60 / qpmin=10 / qpmax=51 / qpstep=4 / cplxblur=20.0 / qblur=0.5 / ip_ratio=1.40 / pb_ratio=1.30 / aq=1:1.20
Language : English

Audio #1
ID : 2
Format : DTS
Format/Info : Digital Theater Systems
Codec ID : A_DTS
Duration : 1h 47mn
Bit rate mode : Constant
Bit rate : 755 Kbps
Channel(s) : 6 channels
Channel positions : Front: L C R, Side: L R, LFE
Sampling rate : 48.0 KHz
Bit depth : 24 bits
Compression mode : Lossy
Stream size : 580 MiB (4%)
Title : DTS @768 Кбит/сек
Language : Russian

Audio #2
ID : 3
Format : DTS
Format/Info : Digital Theater Systems
Codec ID : A_DTS
Duration : 1h 47mn
Bit rate mode : Constant
Bit rate : 755 Kbps
Channel(s) : 6 channels
Channel positions : Front: L C R, Side: L R, LFE
Sampling rate : 48.0 KHz
Bit depth : 24 bits
Compression mode : Lossy
Stream size : 580 MiB (4%)
Title : DTS @ 768 Kbps
Language : English

Text #1
ID : 4
Format : UTF-8
Codec ID : S_TEXT/UTF8
Codec ID/Info : UTF-8 Plain Text
Language : English

Text #2
ID : 5
Format : UTF-8
Codec ID : S_TEXT/UTF8
Codec ID/Info : UTF-8 Plain Text
Language : Russian

Text #3
ID : 6
Format : UTF-8
Codec ID : S_TEXT/UTF8
Codec ID/Info : UTF-8 Plain Text
Title : nadpisi
Language : Russian

Menu
00:00:00.000 : en:00:00:00.000
00:03:21.201 : en:00:03:21.201
00:07:49.010 : en:00:07:49.010
00:10:28.419 : en:00:10:28.419
00:14:09.807 : en:00:14:09.807
00:17:50.111 : en:00:17:50.111
00:19:31.504 : en:00:19:31.504
00:25:55.137 : en:00:25:55.137
00:28:17.988 : en:00:28:17.988
00:32:28.572 : en:00:32:28.572
00:37:51.311 : en:00:37:51.311
00:45:03.367 : en:00:45:03.367
00:49:43.647 : en:00:49:43.647
00:56:28.468 : en:00:56:28.468
00:59:41.828 : en:00:59:41.828
01:02:17.651 : en:01:02:17.651
01:06:12.177 : en:01:06:12.177
01:09:54.524 : en:01:09:54.524
01:12:54.704 : en:01:12:54.704
01:16:19.742 : en:01:16:19.742
01:21:29.468 : en:01:21:29.468
01:25:57.778 : en:01:25:57.778
01:28:55.121 : en:01:28:55.121
01:32:06.813 : en:01:32:06.813
01:33:37.070 : en:01:33:37.070
01:37:15.538 : en:01:37:15.538
01:40:22.141 : en:01:40:22.141
01:41:26.122 : en:01:41:26.122
Свернуть
Скриншоты
Изображение

Изображение

Изображение

Изображение
Свернуть


Последний раз редактировалось yyuuii1223 2013-01-08 18:30, всего редактировалось 1 раз.
Не в сети
Профиль  
 Добавлено: 2011-06-27 20:11 (спустя 13 дней)
Стаж: 6 лет 1 месяц
Сообщений: 5
спасибоньки :bra_vo:
Не в сети
Профиль  
 Добавлено: 2012-12-19 20:03 (спустя 1 год 5 месяцев)
Аватара пользователя
Стаж: 8 лет 1 месяц
Возраст: 27
Сообщений: 60
Спасибок: 186
столько весит а звук тихий капэц
Не в сети
Профиль  
Начать новую темуОтветить на тему  [ Сообщений: 3 ] 
Вы не можете начинать темы
Вы не можете отвечать на сообщения
Вы не можете редактировать свои сообщения
Вы не можете удалять свои сообщения