Правила форума

  • В этом разделе создание новых тем Запрещено.
  • Для создания новых тем пользуйтесь Корневым разделом DVD и HD фильмы.
Начать новую темуОтветить на тему  [ Сообщений: 2 ] 
Торрент файл
Размер: 8.36 GB • Зарегистрирован: 5 лет 3 месяца • Статус: Проверено
Скачан: 157 раз • Желающих скачать: 0 • Поблагодарили: 32 раза
 Раздают: 0  |  0 KB/s  ]   Качают: 1  |  0 KB/s  ] 
 Полного источника не было 6 месяцев 
Сообщения
 Добавлено: 2011-08-25 12:25
Руководитель релиз-группы
Аватара пользователя
Стаж: 8 лет 6 месяцев
Возраст: 25
Сообщений: 7578
Спасибок: 51910
Лайков: 14
Люди Икс: Первый класс / X-Men: First Class

«Стань свидетелем того, как изменится наш мир»

 
Изображение
Год выпуска: 2011
Страна: США

Жанр: фантастика, боевик, триллер, драма, приключения
Продолжительность: 02:11:42
Перевод: Профессиональный (полное дублирование)

Режиссер: Мэттью Вон
Сценарий: Эшли Миллер, Зак Стенц, Джейн Голдман
Продюсер: Грегори Гудман, Саймон Кинберг, Лорен Шулер Доннер
Оператор: Джон Мэтисон
Композитор: Генри Джекман

В ролях:Джеймс МакЭвой, Майкл Фассбендер, Кевин Бейкон, Калеб Лэндри Джонс, Николас Холт, Лукас Тилл, Дженнифер Лоуренс, Джейсон Флеминг, Зои Кравиц, Дженьюэри Джонс
Описание: Фильм нам расскажет о том, как сформировались профессор Ксавье и Магнито, о процессе основания школы Ксавье для детей-мутантов и, наконец, о том, что же произошло между двумя закадычными друзьями и почему они расстались.
Изображение 8.10 (56 304) Изображение 8.128 (17 256) Топ250: 167
MPAA: Изображение - Детям до 13 лет просмотр не желателен
Mediainfo
General
Complete name : K:\Ljudi.Iks.Pervyj.klass.2011.x264.BDRip.720p.mkv
Format : Matroska
File size : 8.36 GiB
Duration : 2h 11mn
Overall bit rate : 9 085 Kbps
Encoded date : UTC 2011-08-25 08:34:33
Writing application : mkvmerge v4.9.1 ('Ich will') ������ �� Jul 11 2011 23:53:15
Writing library : libebml v1.2.1 + libmatroska v1.1.1

Video
ID : 1
Format : AVC
Format/Info : Advanced Video Codec
Format profile : High@L4.1
Format settings, CABAC : Yes
Format settings, ReFrames : 12 frames
Muxing mode : Container profile=Unknown@4.1
Codec ID : V_MPEG4/ISO/AVC
Duration : 2h 11mn
Bit rate : 6 805 Kbps
Width : 1 280 pixels
Height : 544 pixels
Display aspect ratio : 2.35:1
Frame rate : 23.976 fps
Color space : YUV
Chroma subsampling : 4:2:0
Bit depth : 8 bits
Scan type : Progressive
Bits/(Pixel*Frame) : 0.408
Stream size : 6.11 GiB (73%)
Writing library : x264 core 116 r2037 f8ebd4a
Encoding settings : cabac=1 / ref=12 / deblock=1:-3:-2 / analyse=0x3:0x133 / me=umh / subme=10 / psy=1 / psy_rd=0.90:0.05 / mixed_ref=1 / me_range=32 / chroma_me=1 / trellis=2 / 8x8dct=1 / cqm=0 / deadzone=21,11 / fast_pskip=0 / chroma_qp_offset=-3 / threads=9 / sliced_threads=0 / nr=0 / decimate=0 / interlaced=0 / bluray_compat=0 / constrained_intra=0 / bframes=6 / b_pyramid=2 / b_adapt=2 / b_bias=0 / direct=3 / weightb=1 / open_gop=0 / weightp=2 / keyint=360 / keyint_min=2 / scenecut=40 / intra_refresh=0 / rc_lookahead=50 / rc=2pass / mbtree=1 / bitrate=6805 / ratetol=1.0 / qcomp=0.70 / qpmin=0 / qpmax=69 / qpstep=4 / cplxblur=20.0 / qblur=0.5 / vbv_maxrate=50000 / vbv_bufsize=30000 / nal_hrd=none / ip_ratio=1.40 / aq=2:1.00

Audio #1
ID : 2
Format : DTS
Format/Info : Digital Theater Systems
Codec ID : A_DTS
Duration : 2h 11mn
Bit rate mode : Constant
Bit rate : 755 Kbps
Channel(s) : 6 channels
Channel positions : Front: L C R, Side: L R, LFE
Sampling rate : 48.0 KHz
Bit depth : 24 bits
Stream size : 711 MiB (8%)
Title : Dub 768k
Language : Russian

Audio #2
ID : 3
Format : DTS
Format/Info : Digital Theater Systems
Codec ID : A_DTS
Duration : 2h 11mn
Bit rate mode : Constant
Bit rate : 1 510 Kbps
Channel(s) : 6 channels
Channel positions : Front: L C R, Side: L R, LFE
Sampling rate : 48.0 KHz
Bit depth : 24 bits
Stream size : 1.39 GiB (17%)
Title : 1536k
Language : English

Text #1
ID : 4
Format : UTF-8
Codec ID : S_TEXT/UTF8
Codec ID/Info : UTF-8 Plain Text
Title : forced
Language : Russian

Text #2
ID : 5
Format : UTF-8
Codec ID : S_TEXT/UTF8
Codec ID/Info : UTF-8 Plain Text
Language : Russian

Menu
00:00:00.000 : en:Chapter.01
00:04:21.552 : en:Chapter.02
00:09:33.155 : en:Chapter.03
00:14:03.425 : en:Chapter.04
00:16:08.175 : en:Chapter.05
00:22:10.829 : en:Chapter.06
00:27:11.046 : en:Chapter.07
00:28:46.349 : en:Chapter.08
00:31:32.891 : en:Chapter.09
00:36:07.540 : en:Chapter.10
00:40:12.660 : en:Chapter.11
00:44:16.487 : en:Chapter.12
00:50:05.752 : en:Chapter.13
00:54:00.862 : en:Chapter.14
01:01:07.413 : en:Chapter.15
01:08:17.927 : en:Chapter.16
01:11:51.098 : en:Chapter.17
01:14:06.525 : en:Chapter.18
01:20:07.052 : en:Chapter.19
01:23:43.226 : en:Chapter.20
01:27:35.833 : en:Chapter.21
01:28:51.242 : en:Chapter.22
01:31:24.979 : en:Chapter.23
01:33:33.899 : en:Chapter.24
01:37:54.410 : en:Chapter.25
01:39:55.197 : en:Chapter.26
01:43:37.961 : en:Chapter.27
01:47:44.166 : en:Chapter.28
01:52:38.460 : en:Chapter.29
01:56:44.622 : en:Chapter.30
02:01:26.696 : en:Chapter.31
02:04:24.248 : en:Chapter.32
Свернуть

Качество: BDRip 720p R5 / HQRip / BDRip 1080p
Формат: MKV
Видео: 1280x544, MPEG-4 AVC, 6805 Кбит/с, 23.976 кадр/с
Аудио#1: Russian: DTS, 6 ch, 48 KHz, 768 Кбит/с |Дубляж|
Аудио#3: English: DTS 5.1, 48 KHz, 1536 Кбит/с
Субтитры: Русские (форсированные, полные)

Скриншоты:

Изображение

Изображение

Изображение
Свернуть
Не в сети
Профиль  
 Добавлено: 2012-02-26 18:52 (спустя 6 месяцев)
Стаж: 6 лет 4 месяца
Сообщений: 39
А если я людей Х ни одной части не смотрел, мне этот фильм будет интересен?
Не в сети
Профиль  
Начать новую темуОтветить на тему  [ Сообщений: 2 ] 
Вы не можете начинать темы
Вы не можете отвечать на сообщения
Вы не можете редактировать свои сообщения
Вы не можете удалять свои сообщения