Правила форума

  • В этом разделе создание новых тем Запрещено.
  • Для создания новых тем пользуйтесь Корневым разделом DVD и HD фильмы.
Начать новую темуОтветить на тему  [ Сообщений: 8 ] 
Торрент файл
Размер: 16.65 GB • Зарегистрирован: 5 лет 3 месяца • Статус: Проверено
Скачан: 400 раз • Желающих скачать: 0 • Поблагодарили: 62 раза
 Раздают: 0  |  0 KB/s  ]   Качают: 0  |  0 KB/s  ] 
 Полного источника не было 17 часов 
Сообщения
 Добавлено: 2011-08-25 17:32
Руководитель релиз-группы
Аватара пользователя
Стаж: 8 лет 6 месяцев
Возраст: 25
Сообщений: 7578
Спасибок: 51914
Лайков: 14
Люди Икс: Первый класс / X-Men: First Class

«Стань свидетелем того, как изменится наш мир»

 
Изображение
Год выпуска: 2011
Страна: США

Жанр: фантастика, боевик, триллер, драма, приключения
Продолжительность: 02:11:42
Перевод: Профессиональный (полное дублирование)

Режиссер: Мэттью Вон
Сценарий: Эшли Миллер, Зак Стенц, Джейн Голдман
Продюсер: Грегори Гудман, Саймон Кинберг, Лорен Шулер Доннер
Оператор: Джон Мэтисон
Композитор: Генри Джекман

В ролях:Джеймс МакЭвой, Майкл Фассбендер, Кевин Бейкон, Калеб Лэндри Джонс, Николас Холт, Лукас Тилл, Дженнифер Лоуренс, Джейсон Флеминг, Зои Кравиц, Дженьюэри Джонс
Описание: Фильм нам расскажет о том, как сформировались профессор Ксавье и Магнито, о процессе основания школы Ксавье для детей-мутантов и, наконец, о том, что же произошло между двумя закадычными друзьями и почему они расстались.
Изображение 8.10 (56 304) Изображение 8.128 (17 256) Топ250: 167
MPAA: Изображение - Детям до 13 лет просмотр не желателен
Mediainfo
Полное имя : X-Men.First.Class.2011.D.BDRip.1080p.mkv
Формат : Matroska
Версия формата : Version 2
Размер файла : 16,6 Гбайт
Продолжительность : 2 ч. 11 м.
Общий поток : 18,1 Мбит/сек
Название фильма : Люди Икс: Первый класс / X-Men: First Class (2011) .....:::UNIONGANG:::.....
Дата кодирования : UTC 2011-08-25 12:03:38
Программа кодирования : mkvmerge v4.9.1 ('Ich will') сборка от Jul 11 2011 23:53:15
Библиотека кодирования : libebml v1.2.1 + libmatroska v1.1.1

Видео
Идентификатор : 1
Формат : AVC
Формат/Информация : Advanced Video Codec
Профиль формата : High@L4.1
Параметр CABAC формата : Да
Параметр ReFrames формата : 5 кадров
Идентификатор кодека : V_MPEG4/ISO/AVC
Продолжительность : 2 ч. 11 м.
Битрейт : 15,8 Мбит/сек
Ширина : 1920 пикселей
Высота : 816 пикселей
Соотношение сторон : 2,35:1
Частота кадров : 23,976 кадра/сек
Цветовое пространство : YUV
Субдискретизация насыщенности : 4:2:0
Битовая глубина : 8 бит
Тип развёртки : Прогрессивная
Бит/(Пиксели*Кадры) : 0.421
Размер потока : 14,2 Гбайт (85%)
Заголовок : X-Men.First.Class.2011.BluRay.1080p.x264.DTS.HDChina
Библиотека кодирования : x264 core 116 r2037 f8ebd4a
Настройки программы : cabac=1 / ref=5 / deblock=1:-2:-2 / analyse=0x3:0x133 / me=umh / subme=10 / psy=1 / psy_rd=0.85:0.05 / mixed_ref=1 / me_range=48 / chroma_me=1 / trellis=2 / 8x8dct=1 / cqm=0 / deadzone=21,11 / fast_pskip=0 / chroma_qp_offset=-3 / threads=12 / sliced_threads=0 / nr=0 / decimate=0 / interlaced=0 / bluray_compat=0 / constrained_intra=0 / bframes=8 / b_pyramid=2 / b_adapt=2 / b_bias=0 / direct=3 / weightb=1 / open_gop=0 / weightp=2 / keyint=360 / keyint_min=2 / scenecut=40 / intra_refresh=0 / rc_lookahead=60 / rc=2pass / mbtree=1 / bitrate=15815 / ratetol=1.0 / qcomp=0.65 / qpmin=0 / qpmax=69 / qpstep=4 / cplxblur=20.0 / qblur=0.5 / vbv_maxrate=50000 / vbv_bufsize=45000 / nal_hrd=none / ip_ratio=1.40 / aq=2:1.00
Язык : English

Аудио #1
Идентификатор : 2
Формат : DTS
Формат/Информация : Digital Theater Systems
Идентификатор кодека : A_DTS
Продолжительность : 2 ч. 11 м.
Вид битрейта : Постоянный
Битрейт : 755 Кбит/сек
Каналы : 6 каналов
Расположение каналов : Front: L C R, Side: L R, LFE
Частота : 48,0 КГц
Битовая глубина : 24 бит
Метод сжатия : С потерями
Размер потока : 711 Мбайт (4%)
Заголовок : DTS 5.1 @ 755 kb/s [Russian DUB R5]
Язык : Russian

Аудио #2
Идентификатор : 3
Формат : DTS
Формат/Информация : Digital Theater Systems
Идентификатор кодека : A_DTS
Продолжительность : 2 ч. 11 м.
Вид битрейта : Постоянный
Битрейт : 1510 Кбит/сек
Каналы : 6 каналов
Расположение каналов : Front: L C R, Side: L R, LFE
Частота : 48,0 КГц
Битовая глубина : 24 бит
Метод сжатия : С потерями
Размер потока : 1,39 Гбайт (8%)
Заголовок : DTS 5.1 @ 1510 kb/s [English]
Язык : English

Текст #1
Идентификатор : 4
Формат : UTF-8
Идентификатор кодека : S_TEXT/UTF8
Идентификатор кодека/Информация : UTF-8 Plain Text
Заголовок : Russian [Forced]
Язык : Russian

Текст #2
Идентификатор : 5
Формат : UTF-8
Идентификатор кодека : S_TEXT/UTF8
Идентификатор кодека/Информация : UTF-8 Plain Text
Заголовок : Russian [Full]
Язык : Russian

Текст #3
Идентификатор : 6
Формат : UTF-8
Идентификатор кодека : S_TEXT/UTF8
Идентификатор кодека/Информация : UTF-8 Plain Text
Заголовок : English [Forced]
Язык : English

Текст #4
Идентификатор : 7
Формат : UTF-8
Идентификатор кодека : S_TEXT/UTF8
Идентификатор кодека/Информация : UTF-8 Plain Text
Заголовок : English [Full]
Язык : English

Меню
00:00:00.000 : en:Chapter.01
00:04:21.552 : en:Chapter.02
00:09:33.155 : en:Chapter.03
00:14:03.425 : en:Chapter.04
00:16:08.175 : en:Chapter.05
00:22:10.829 : en:Chapter.06
00:27:11.046 : en:Chapter.07
00:28:46.349 : en:Chapter.08
00:31:32.891 : en:Chapter.09
00:36:07.540 : en:Chapter.10
00:40:12.660 : en:Chapter.11
00:44:16.487 : en:Chapter.12
00:50:05.752 : en:Chapter.13
00:54:00.862 : en:Chapter.14
01:01:07.413 : en:Chapter.15
01:08:17.927 : en:Chapter.16
01:11:51.098 : en:Chapter.17
01:14:06.525 : en:Chapter.18
01:20:07.052 : en:Chapter.19
01:23:43.226 : en:Chapter.20
01:27:35.833 : en:Chapter.21
01:28:51.242 : en:Chapter.22
01:31:24.979 : en:Chapter.23
01:33:33.899 : en:Chapter.24
01:37:54.410 : en:Chapter.25
01:39:55.197 : en:Chapter.26
01:43:37.961 : en:Chapter.27
01:47:44.166 : en:Chapter.28
01:52:38.460 : en:Chapter.29
01:56:44.622 : en:Chapter.30
02:01:26.696 : en:Chapter.31
02:04:24.248 : en:Chapter.32
Свернуть

Релиз группы: Изображение
Качество: BDRip 1080p R5 / HQRip / BDRip 720p
Формат: MKV
Видео: 1920x816, MPEG-4 AVC, 15,8 Мбит/сек, 23.976 кадр/с
Аудио#1: Russian: DTS, 6 ch, 48 KHz, 755 Кбит/с |Дубляж|
Аудио#2: English: DTS 5.1, 48 KHz, 1510 Кбит/с
Субтитры: Russian, Russian [Forced], English, English [Forced]

Скриншоты:

Изображение

Изображение

Изображение
Свернуть
Не в сети
Профиль  
 Добавлено: 2011-08-26 21:01 (спустя 1 день 3 часа)
Top-seeder
Аватара пользователя
Стаж: 5 лет 8 месяцев
Возраст: 23
Сообщений: 73
Спасибок: 859
Большое спасибо за такую раздачу)) 200 сидов с других трекеров, проблем со скоростью нет! :co_ol:
_________________
Изображение
Изображение
Не в сети
Профиль  
 Добавлено: 2011-08-26 21:43 (спустя 42 минуты)
Руководитель релиз-группы
Аватара пользователя
Стаж: 8 лет 6 месяцев
Возраст: 25
Сообщений: 7578
Спасибок: 51914
Лайков: 14

RikRok:

Большое спасибо за такую раздачу)) 200 сидов с других трекеров, проблем со скоростью нет! :co_ol:
Не за что. А главное, релиз не умрет так намного дольше :a_g_a:
Не в сети
Профиль  
 Добавлено: 2011-08-28 20:42 (спустя 1 день 22 часа)
Кинокомментатор
Аватара пользователя
Стаж: 9 лет 1 месяц
Сообщений: 1332
Лайков: 54
удалить бы это сообщение...


Последний раз редактировалось Bronks 2011-08-28 23:06, всего редактировалось 2 раз(а).
Не в сети
Профиль  
 Добавлено: 2011-08-28 20:42 (спустя 1 секунда)
Кинокомментатор
Аватара пользователя
Стаж: 9 лет 1 месяц
Сообщений: 1332
Лайков: 54
плиз, хелп ми) почему я не могу справица с сабами?%) немецкая речь не переводица, сабов не видно... в КМП смотрю)


Добавлено спустя 10 минут:
в лайт элоу всё работает)
_________________
Я ВКонтакте
Не в сети
Профиль  
 Добавлено: 2011-08-28 23:11 (спустя 2 часа 29 минут)
Кинокомментатор
Аватара пользователя
Стаж: 9 лет 1 месяц
Сообщений: 1332
Лайков: 54
кино качественное, дорогое, интересно, красивое... что мб лучше? всё на 5 балов из 5!)
сюжет хорош) очень канешн порадовал Зверь!) история дружбы тоже хороша:)
в принципе фильм смотрится на ура! не хочется отвернуться или сходить куда то... всё очень интересно и продумано!)
фильму 8 точно!)
_________________
Я ВКонтакте
Не в сети
Профиль  
 Добавлено: 2012-02-26 18:51 (спустя 5 месяцев)
Стаж: 6 лет 5 месяцев
Сообщений: 39
А если я людей Х ни одной части не смотрел, мне этот фильм будет интересен?
Не в сети
Профиль  
 Добавлено: 2015-04-20 09:25 (спустя 3 года 1 месяц)
Аватара пользователя
Стаж: 7 лет 7 месяцев
Сообщений: 53
Спасибок: 1
Лайков: 1
Дайте скорости плиз.Потом помогу с раздачей. :bra_vo:
Не в сети
Профиль  
Начать новую темуОтветить на тему  [ Сообщений: 8 ] 
Вы не можете начинать темы
Вы не можете отвечать на сообщения
Вы не можете редактировать свои сообщения
Вы не можете удалять свои сообщения