Правила форума

  • В этом разделе создание новых тем Запрещено.
  • Для создания новых тем пользуйтесь Корневым разделом DVD и HD фильмы.
Начать новую темуОтветить на тему  [ 1 сообщение ] 
Торрент файл
Размер: 7.17 GB • Зарегистрирован: 3 года 11 месяцев • Статус: Проверено
Скачан: 13 раз • Желающих скачать: 0 • Поблагодарили: 8 раз
 Раздают: 0  |  0 KB/s  ]   Качают: 0  |  0 KB/s  ] 
 Полного источника не было 2 года 10 месяцев 
Сообщения
 Добавлено: 2012-12-20 10:42
Модератор
Аватара пользователя
Стаж: 6 лет 10 месяцев
Возраст: 33
Сообщений: 5908
Спасибок: 61257
Лайков: 3540
Изображение

Люди как мы
People Like Us


Год выпуска: 2012
Страна: США
Слоган: «Find your family.»
Жанр: драма
Продолжительность: 01:54:36
Перевод: Профессиональный (многоголосый, закадровый)
Режиссер: Алекс Куртцман
Сценарий: Алекс Куртцман, Роберто Орси, Джоди Ламберт
Продюсер: Бобби Коэн, Роберто Орси, Клэйтон Таунсенд, Алекс Куртцман, Джоди Ламберт
Оператор: Сальваторе Тотино
Композитор: А.Р. Рахман
В ролях: Крис Пайн, Элизабет Бэнкс, Майкл Холл Д’Аддарио, Мишель Пфайффер, Оливия Уайлд, Марк Дюпласс, Сара Морнелл, Филип Бейкер Холл, Дин Чеквала, Барбара Ив Харрис, Дэвид Баррус, Джозеф Уайз
Бюджет: $16 000 000
Сборы в США: $12 434 778
Мировая премьера: 15 июня 2012
Релиз на DVD: 16 апреля 2013, «Уолт Дисней Компани СНГ»
Релиз на Blu-ray: 16 апреля 2013, «Уолт Дисней Компани СНГ»
Описание: Молодой менеджер по продажам, испытывающий сложности в своей карьере, теряет своего отца, с которым у него были натянутые отношения, на похороны которого он даже не явился, но явился на завещание. А получает в нём лишь просьбу передать 150 000 долларов некому Джошу Дэвису, который, как в дальнейшем становится понятно, является его племянником и сыном его неизвестный сестры.

Изображение User Rating: 7.388 (896)
Изображение User Rating: 7.10 (9 523)
MPAA: PG-13 - Детям до 13 лет просмотр не желателен
Раздача группы: Изображение
Изображение
Качество: BDRip, 720p
Формат: Matroska
Видео: MPEG-4 AVC, 6800 Kбит/с, 1280x544
Аудио: Русский (AC3, 6 ch, 640 Кбит/с), английский (DTS, 6 ch, 1510 Кбит/с)
mediainfo
General
Unique ID : 230218866780934039095656044960109863391 (0xAD328A7A5D3CE49B8723A9172284A1DF)
Complete name : Ljudi.kak.my.2012.D.BDRip.720p.IRONCLUB.mkv
Format : Matroska
Format version : Version 2
File size : 7.17 GiB
Duration : 1h 54mn
Overall bit rate : 8 940 Kbps
Movie name : IRONCLUB
Encoded date : UTC 2012-12-20 06:54:05
Writing application : mkvmerge v5.2.0 ('I can't explain') built on Dec 18 2011 18:12:03
Writing library : libebml v1.2.3 + libmatroska v1.3.0

Video
ID : 1
Format : AVC
Format/Info : Advanced Video Codec
Format profile : High@L4.1
Format settings, CABAC : Yes
Format settings, ReFrames : 11 frames
Codec ID : V_MPEG4/ISO/AVC
Duration : 1h 54mn
Bit rate : 6 800 Kbps
Width : 1 280 pixels
Height : 544 pixels
Display aspect ratio : 2.35:1
Frame rate : 23.976 fps
Color space : YUV
Chroma subsampling : 4:2:0
Bit depth : 8 bits
Scan type : Progressive
Bits/(Pixel*Frame) : 0.407
Stream size : 5.30 GiB (74%)
Title : People Like Us 2012 720p Bluray DTS x264-TayTO
Writing library : x264 core 125 r2200 999b753
Encoding settings : cabac=1 / ref=11 / deblock=1:-3:-3 / analyse=0x3:0x113 / me=esa / subme=10 / psy=1 / psy_rd=1.05:0.00 / mixed_ref=1 / me_range=16 / chroma_me=1 / trellis=2 / 8x8dct=1 / cqm=0 / deadzone=21,11 / fast_pskip=0 / chroma_qp_offset=-3 / threads=6 / lookahead_threads=1 / sliced_threads=0 / nr=0 / decimate=0 / interlaced=0 / bluray_compat=0 / constrained_intra=0 / bframes=7 / b_pyramid=2 / b_adapt=2 / b_bias=0 / direct=3 / weightb=1 / open_gop=0 / weightp=2 / keyint=240 / keyint_min=23 / scenecut=40 / intra_refresh=0 / rc_lookahead=192 / rc=2pass / mbtree=1 / bitrate=6800 / ratetol=1.0 / qcomp=0.50 / qpmin=0 / qpmax=69 / qpstep=4 / cplxblur=20.0 / qblur=0.5 / ip_ratio=1.40 / aq=1:0.85 / zones=1,1300,b=0.45/156864,164873,b=0.35
Language : English
Default : Yes
Forced : Yes
Matrix coefficients : BT.709-5, BT.1361, IEC 61966-2-4 709, SMPTE RP177

Audio #1
ID : 2
Format : AC-3
Format/Info : Audio Coding 3
Mode extension : CM (complete main)
Format settings, Endianness : Big
Codec ID : A_AC3
Duration : 1h 54mn
Bit rate mode : Constant
Bit rate : 640 Kbps
Channel(s) : 6 channels
Channel positions : Front: L C R, Side: L R, LFE
Sampling rate : 48.0 KHz
Bit depth : 16 bits
Compression mode : Lossy
Stream size : 525 MiB (7%)
Title : DD 5.1 @ 640 kbps - MVO, BD EUR
Language : Russian
Default : Yes
Forced : Yes

Audio #2
ID : 3
Format : DTS
Format/Info : Digital Theater Systems
Codec ID : A_DTS
Duration : 1h 54mn
Bit rate mode : Constant
Bit rate : 1 510 Kbps
Channel(s) : 6 channels
Channel positions : Front: L C R, Side: L R, LFE
Sampling rate : 48.0 KHz
Bit depth : 24 bits
Compression mode : Lossy
Stream size : 1.21 GiB (17%)
Title : DTS 5.1 @ 1536 kbps
Language : English
Default : No
Forced : No

Text #1
ID : 4
Format : UTF-8
Codec ID : S_TEXT/UTF8
Codec ID/Info : UTF-8 Plain Text
Language : Russian
Default : No
Forced : No

Text #2
ID : 5
Format : UTF-8
Codec ID : S_TEXT/UTF8
Codec ID/Info : UTF-8 Plain Text
Title : English subtitle
Language : English
Default : Yes
Forced : No

Menu
00:00:00.000 : en:00:00:00.000
00:05:05.847 : en:00:05:05.847
00:08:45.191 : en:00:08:45.191
00:14:08.347 : en:00:14:08.347
00:17:54.448 : en:00:17:54.448
00:22:55.958 : en:00:22:55.958
00:28:37.174 : en:00:28:37.174
00:33:08.987 : en:00:33:08.987
00:36:25.767 : en:00:36:25.767
00:42:00.935 : en:00:42:00.935
00:47:00.901 : en:00:47:00.901
00:53:29.289 : en:00:53:29.289
01:03:52.245 : en:01:03:52.245
01:06:44.959 : en:01:06:44.959
01:13:26.277 : en:01:13:26.277
01:17:52.668 : en:01:17:52.668
01:21:42.189 : en:01:21:42.189
01:31:17.514 : en:01:31:17.514
01:37:21.419 : en:01:37:21.419
01:40:47.625 : en:01:40:47.625
01:48:14.822 : en:01:48:14.822
Свернуть
"Знаете ли Вы, что..."
  • Фильм основан на реальных событиях.
Свернуть
Скриншоты

Изображение
Изображение
Изображение
Изображение
Свернуть
_________________
ИзображениеИзображение Изображение
Изображение
 tany1984 и di-ys1 нравится это.
Не в сети
Профиль  
Начать новую темуОтветить на тему  [ 1 сообщение ] 
Вы не можете начинать темы
Вы не можете отвечать на сообщения
Вы не можете редактировать свои сообщения
Вы не можете удалять свои сообщения