Правила форума

  • В этом разделе создание новых тем Запрещено.
  • Для создания новых тем пользуйтесь Корневым разделом DVD и HD фильмы.
Начать новую темуОтветить на тему  [ Сообщений: 4 ] 
Торрент файл
Размер: 4.37 GB • Зарегистрирован: 4 года 6 месяцев • Статус: Проверено
Скачан: 283 раза • Желающих скачать: 0 • Поблагодарили: 44 раза
 Раздают: 1  |  0 KB/s  ]   Качают: 0  |  0 KB/s  ] 
Сообщения
 Добавлено: 2012-05-19 21:07
Модератор
Аватара пользователя
Стаж: 6 лет 10 месяцев
Возраст: 33
Сообщений: 5908
Спасибок: 61252
Лайков: 3540
Изображение

Люди в черном 2 / Men in Black II


Год выпуска: 2002
Страна: США
Слоган: «Хорошие парни носят чёрное»
Жанр: фантастика, боевик, комедия
Продолжительность: 01:28:08
Перевод: Профессиональный (полное дублирование)
Режиссер: Барри Зонненфельд
Сценарий: Роберт Гордон, Бэрри Фэнаро, Лоуелл Каннингэм
Продюсер: Лори МакДональд, Уолтер Ф. Паркс, Марк Хеймс
Оператор: Грег Гардинер
Композитор: Дэнни Элфман
В ролях: Томми Ли Джонс, Уилл Смит, Рип Торн, Лара Флинн Бойл, Джонни Ноксвил, Розарио Доусон, Тони Шэлуб, Патрик Варбертон, Джек Келер, Дэвид Кросс
Бюджет: $140 000 000
Сборы в США: $190 418 803
Сборы в России: $6 280 715
Сборы в мире: $441 818 803
Описание: «Люди в черном 2» продолжает рассказ о приключениях двух элитных полицейских - агента Кея и агента Джея среди инопланетян. Со времени их предыдущих похождений прошло четыре года.
Все эти годы агент Кей вел размеренный образ жизни, в то время как агент Джей продолжал бесстрашно трудиться в рядах самой секретной организации в мире. Расследуя самое обычное дело, агент Джей натыкается на следы дьявольски изощренного заговора, задуманного Серлиной, злобным монстром, обитающим на Земле в образе сексуальнейшей модели.
Когда события принимают угрожающий оборот, агенту Джею приходится обратиться за помощью к своему бывшему напарнику, который мирно трудится в Почтовом Департаменте. За короткое время агенту Джею надо убедить агента Кея помочь ему - ведь только он может помочь спасти Землю от порабощения и уничтожения.

Изображение
MPAA: Изображение
Мировая премьера: 3 июля 2002
Релиз на DVD: 11 ноября 2010, «Columbia/Sony»
Релиз на Blu-ray: 15 мая 2012, «Columbia/Sony»
Изображение
Раздача группы: Изображение
Качество: BDRip, 1080p (источник: Blu-ray Disc)
Формат: Matroska
Видео: AVC; 1920x1040 (16:9); 5679 Kbps; 23,976 fps; 0,119 bit/pixel
Аудио №1: Russian; AC3; 640 Kbps; CBR; 6 ch
Аудио №2: AC3; 640 Kbps; CBR; 6 ch

Субтитры №1: Russian
Субтитры №2:


"Знаете ли Вы, что..."
  • Sony согласились отдать на гонорары 50 процентов прибыли от фильма: Уиллу Смиту - 20 процентов; Томми Ли Джонсу - 12.5; Барри Зонненфельду - 10 и Стивену Спилбергу - 7.5 процентов.
  • Фамке Янссен должна была сыграть Серлину, и даже снялась в нескольких эпизодах, но смерть в семье заставила её покинуть проект.
  • В эпизодических ролях снялись сыновья Уилла Смита и дочь Томми Ли Джонса.
  • Конец фильма пародирует конец первого, где наша галактика оказывается всего-лишь одним из многих шариков для детской игры исполинских инопланетян.
  • Девочку на почте сыграла дочь Барри Зонненфельда.
  • В первой части фильма у Джека Джибса косил правый глаз, во второй - левый.
Свернуть
MediaInfo
Общее
Уникальный идентификатор : 200612188407377295206070138184440044319 (0x96EC8088BA01BF9BAE6BBD18CE955B1F)
Полное имя : Men.in.Black.II.2002.BDRip.1080p.Rus.Eng.mkv
Формат : Matroska
Версия формата : Version 2
Размер файла : 4,37 Гбайт
Продолжительность : 1 ч. 28 м.
Общий поток : 7101 Кбит/сек
Название фильма : Люди в черном 2 / Men in Black II (2002)
Дата кодирования : UTC 2012-05-07 12:01:07
Программа кодирования : mkvmerge v5.5.0 ('Healer') built on Apr 6 2012 21:43:24
Библиотека кодирования : libebml v1.2.3 + libmatroska v1.3.0

Видео
Идентификатор : 1
Формат : AVC
Формат/Информация : Advanced Video Codec
Профиль формата : High@L4.1
Параметр CABAC формата : Да
Параметр ReFrames формата : 4 кадра
Идентификатор кодека : V_MPEG4/ISO/AVC
Продолжительность : 1 ч. 28 м.
Битрейт : 5824 Кбит/сек
Ширина : 1920 пикселей
Высота : 1040 пикселей
Соотношение сторон : 16:9
Частота кадров : 23,976 кадра/сек
Цветовое пространство : YUV
Субдискретизация насыщенности : 4:2:0
Битовая глубина : 8 бит
Тип развёртки : Прогрессивная
Бит/(Пиксели*Кадры) : 0.122
Размер потока : 3,50 Гбайт (80%)
Заголовок : Release by AlexKa
Библиотека кодирования : x264 core 124 r2197 69a0443
Настройки программы : cabac=1 / ref=4 / deblock=1:0:0 / analyse=0x3:0x133 / me=umh / subme=10 / psy=1 / psy_rd=1.00:0.10 / mixed_ref=1 / me_range=32 / chroma_me=1 / trellis=2 / 8x8dct=1 / cqm=0 / deadzone=21,11 / fast_pskip=0 / chroma_qp_offset=-3 / threads=12 / sliced_threads=0 / nr=0 / decimate=0 / interlaced=0 / bluray_compat=0 / constrained_intra=0 / bframes=5 / b_pyramid=2 / b_adapt=2 / b_bias=0 / direct=3 / weightb=1 / open_gop=0 / weightp=2 / keyint=240 / keyint_min=23 / scenecut=40 / intra_refresh=0 / rc_lookahead=60 / rc=2pass / mbtree=1 / bitrate=5824 / ratetol=1.0 / qcomp=0.60 / qpmin=0 / qpmax=69 / qpstep=4 / cplxblur=20.0 / qblur=0.5 / ip_ratio=1.40 / aq=1:1.00
Язык : English

Аудио #1
Идентификатор : 2
Формат : AC-3
Формат/Информация : Audio Coding 3
Расширение режима : CM (complete main)
Идентификатор кодека : A_AC3
Продолжительность : 1 ч. 28 м.
Вид битрейта : Постоянный
Битрейт : 640 Кбит/сек
Каналы : 6 каналов
Расположение каналов : Front: L C R, Side: L R, LFE
Частота : 48,0 КГц
Битовая глубина : 16 бит
Метод сжатия : С потерями
Размер потока : 403 Мбайт (9%)
Заголовок : Rus
Язык : Russian

Аудио #2
Идентификатор : 3
Формат : AC-3
Формат/Информация : Audio Coding 3
Расширение режима : CM (complete main)
Идентификатор кодека : A_AC3
Продолжительность : 1 ч. 28 м.
Вид битрейта : Постоянный
Битрейт : 640 Кбит/сек
Каналы : 6 каналов
Расположение каналов : Front: L C R, Side: L R, LFE
Частота : 48,0 КГц
Битовая глубина : 16 бит
Метод сжатия : С потерями
Размер потока : 403 Мбайт (9%)
Заголовок : Eng
Язык : English

Текст #1
Идентификатор : 4
Формат : UTF-8
Идентификатор кодека : S_TEXT/UTF8
Идентификатор кодека/Информация : UTF-8 Plain Text
Заголовок : Rus
Язык : Russian

Текст #2
Идентификатор : 5
Формат : UTF-8
Идентификатор кодека : S_TEXT/UTF8
Идентификатор кодека/Информация : UTF-8 Plain Text
Заголовок : Eng
Язык : English

Меню
00:00:00.000 : :Chapter 01
00:07:01.129 : :Chapter 02
00:13:20.716 : :Chapter 03
00:19:05.936 : :Chapter 04
00:24:23.170 : :Chapter 05
00:30:41.256 : :Chapter 06
00:34:59.388 : :Chapter 07
00:41:55.596 : :Chapter 08
00:48:13.974 : :Chapter 09
00:52:32.858 : :Chapter 10
00:57:32.824 : :Chapter 11
01:02:34.125 : :Chapter 12
01:06:20.434 : :Chapter 13
01:10:30.059 : :Chapter 14
01:13:54.847 : :Chapter 15
01:16:02.474 : :Chapter 16

Свернуть

Скриншоты

Изображение
Изображение
Изображение
Свернуть
_________________
ИзображениеИзображение Изображение
Изображение
 di-ys1 нравится это.
Не в сети
Профиль  
 Добавлено: 2012-05-19 21:23 (спустя 16 минут)
Аватара пользователя
Стаж: 7 лет 2 месяца
Сообщений: 7167
Спасибок: 81989
Лайков: 2438
Дилогию бы делал?, а лучше трилогию! :)

:co_ol:
Не в сети
Профиль  
 Добавлено: 2012-05-19 23:02 (спустя 1 час 38 минут)
Модератор
Аватара пользователя
Стаж: 6 лет 10 месяцев
Возраст: 33
Сообщений: 5908
Спасибок: 61252
Лайков: 3540

di-ys1:

Дилогию бы делал?, а лучше трилогию! :)

:co_ol:
Диман, мне не интересно диалогию делать, а трилогия скоро будет :hi_hi_hi:
_________________
ИзображениеИзображение Изображение
Изображение
Не в сети
Профиль  
 Добавлено: 2012-05-20 04:06 (спустя 5 часов)
Аватара пользователя
Стаж: 7 лет 2 месяца
Сообщений: 7167
Спасибок: 81989
Лайков: 2438
Сань-ждёмс трилогу. :ya_hoo_oo:
Не в сети
Профиль  
Начать новую темуОтветить на тему  [ Сообщений: 4 ] 
Вы не можете начинать темы
Вы не можете отвечать на сообщения
Вы не можете редактировать свои сообщения
Вы не можете удалять свои сообщения