Правила форума

  • В этом разделе создание новых тем Запрещено.
  • Для создания новых тем пользуйтесь Корневым разделом DVD и HD фильмы.
Начать новую темуОтветить на тему  [ Сообщений: 3 ] 
Торрент файл
Размер: 7.39 GB • Зарегистрирован: 4 года 3 месяца • Статус: Проверено
Скачан: 371 раз • Желающих скачать: 0 • Поблагодарили: 78 раз
 Раздают: 0  |  0 KB/s  ]   Качают: 0  |  0 KB/s  ] 
 Полного источника не было 1 месяц 23 дня 
Сообщения
 Добавлено: 2012-09-07 09:32
Аватара пользователя
Стаж: 4 года 3 месяца
Возраст: 31
Сообщений: 12
Спасибок: 120
Люди в черном 3 / Men in Black 3

Изображение


Год выпуска: 2012
Страна: США (Amblin Entertainment / Media Magik Entertainment)
Жанр: фантастика, боевик, комедия, приключения
Продолжительность: 01:45:50
Перевод: Профессиональный (дубляж) + Профессиональный (дубляж) + Оригинальная звуковая дорожка
Субтитры: Русские, Английские

Режиссёр: Барри Зонненфельд
В ролях: Уилл Смит, Джош Бролин, Томми Ли Джонс, Джемейн Клемент, Майкл Стулбарг, Эмма Томпсон, Элис Ив, Майк Колтер, Билл Хэйдер, Майкл Чернус
Описание: Агент Джей узнает, что никакого защитного галактического щита, способного отразить иноземный удар, не существует. Агент Кей не построил его, потому что был убит в 1969 году. Агент Джей должен совершить путешествие во времени, чтобы спасти Землю и жизнь напарника.
Изображение 7.568 (29 055)
Изображение 7.1/10 (65,706 users)

Качество: BDRip [HDChina]
Формат: MKV
Видео кодек: x264
Аудио кодек: AC3 (Dolby Digital)
Видео: 1280x694 at 23.976 fps, x264@L4.1, ~7.2 Mbps avg
Аудио #1:Russian: 48 kHz, AC3, 3/2 (L,C,R,l,r) + LFE ch, ~640.00 kbps avg [Профессиональный (дубляж)]
Аудио #2:Ukrainian: 48 kHz, AC3, 3/2 (L,C,R,l,r) + LFE ch, ~640.00 kbps avg [Профессиональный (дубляж)]
Аудио #3:English: 48 kHz, DTS, 3/2 (L,C,R,l,r) + LFE ch, ~1536.00 kbps avg [Оригинальная звуковая дорожка]
Субтитры: Русские, Английские
Изображение
MediaInfo
Format : Matroska
Format version : Version 2
File size : 7.39 GiB
Duration : 1h 45mn
Overall bit rate : 9 991 Kbps
Movie name : Men in Black 3 (2012) - Release for HDCLUB
Encoded date : UTC 2012-09-06 19:41:19
Writing application : mkvmerge v3.4.0 ('Rapunzel') built on May 15 2010 09:38:20
Writing library : libebml v0.8.0 + libmatroska v0.9.0

Video
ID : 1
Format : AVC
Format/Info : Advanced Video Codec
Format profile : High@L4.1
Format settings, CABAC : Yes
Format settings, ReFrames : 9 frames
Codec ID : V_MPEG4/ISO/AVC
Duration : 1h 45mn
Bit rate : 7 200 Kbps
Width : 1 280 pixels
Height : 694 pixels
Display aspect ratio : 16:9
Frame rate : 23.976 fps
Color space : YUV
Chroma subsampling : 4:2:0
Bit depth : 8 bits
Scan type : Progressive
Bits/(Pixel*Frame) : 0.338
Stream size : 5.18 GiB (70%)
Title : Release for HDCLUB
Writing library : x264 core 125 r2208 d9d2288
Encoding settings : cabac=1 / ref=9 / deblock=1:-3:-3 / analyse=0x3:0x113 / me=umh / subme=10 / psy=1 / psy_rd=1.10:0.05 / mixed_ref=1 / me_range=48 / chroma_me=1 / trellis=2 / 8x8dct=1 / cqm=0 / deadzone=21,11 / fast_pskip=0 / chroma_qp_offset=-3 / threads=18 / lookahead_threads=3 / sliced_threads=0 / nr=0 / decimate=0 / interlaced=0 / bluray_compat=0 / constrained_intra=0 / bframes=8 / b_pyramid=2 / b_adapt=2 / b_bias=0 / direct=3 / weightb=1 / open_gop=0 / weightp=2 / keyint=240 / keyint_min=24 / scenecut=40 / intra_refresh=0 / rc_lookahead=240 / rc=2pass / mbtree=1 / bitrate=7200 / ratetol=1.0 / qcomp=0.70 / qpmin=0 / qpmax=69 / qpstep=4 / cplxblur=20.0 / qblur=0.5 / ip_ratio=1.20 / aq=1:0.95
Language : English

Audio #1
ID : 2
Format : AC-3
Format/Info : Audio Coding 3
Mode extension : CM (complete main)
Codec ID : A_AC3
Duration : 1h 45mn
Bit rate mode : Constant
Bit rate : 640 Kbps
Channel(s) : 6 channels
Channel positions : Front: L C R, Side: L R, LFE
Sampling rate : 48.0 KHz
Bit depth : 16 bits
Compression mode : Lossy
Stream size : 484 MiB (6%)
Title : AC3 5.1 @ 640 kbps DUB, Blu-ray CEE
Language : Russian

Audio #2
ID : 3
Format : AC-3
Format/Info : Audio Coding 3
Mode extension : CM (complete main)
Codec ID : A_AC3
Duration : 1h 45mn
Bit rate mode : Constant
Bit rate : 640 Kbps
Channel(s) : 6 channels
Channel positions : Front: L C R, Side: L R, LFE
Sampling rate : 48.0 KHz
Bit depth : 16 bits
Compression mode : Lossy
Stream size : 484 MiB (6%)
Title : AC3 5.1 @ 640 kbps DUB, Blu-ray CEE
Language : Ukrainian

Audio #3
ID : 4
Format : DTS
Format/Info : Digital Theater Systems
Codec ID : A_DTS
Duration : 1h 45mn
Bit rate mode : Constant
Bit rate : 1 510 Kbps
Channel(s) : 6 channels
Channel positions : Front: L C R, Side: L R, LFE
Sampling rate : 48.0 KHz
Bit depth : 16 bits
Compression mode : Lossy
Delay relative to video : 11ms
Stream size : 1.12 GiB (15%)
Title : DTS 5.1 @ 1536 kbps
Language : English

Text #1
ID : 5
Format : UTF-8
Codec ID : S_TEXT/UTF8
Codec ID/Info : UTF-8 Plain Text
Language : Russian

Text #2
ID : 6
Format : UTF-8
Codec ID : S_TEXT/UTF8
Codec ID/Info : UTF-8 Plain Text
Language : English

Menu
00:00:00.000 : en:00:00:00.000
00:06:09.578 : en:00:06:09.578
00:11:27.478 : en:00:11:27.478
00:16:58.809 : en:00:16:58.809
00:22:36.230 : en:00:22:36.230
00:31:24.633 : en:00:31:24.633
00:37:36.421 : en:00:37:36.421
00:42:43.019 : en:00:42:43.019
00:48:55.850 : en:00:48:55.850
00:53:58.235 : en:00:53:58.235
00:59:27.773 : en:00:59:27.773
01:05:52.782 : en:01:05:52.782
01:11:56.312 : en:01:11:56.312
01:19:50.619 : en:01:19:50.619
01:27:57.063 : en:01:27:57.063
01:35:30.683 : en:01:35:30.683
Свернуть

Скриншоты
Изображение
Изображение
Изображение
Изображение
Свернуть
Не в сети
Профиль  
 Добавлено: 2012-09-08 15:04 (спустя 1 день 5 часов)
Стаж: 7 лет 5 месяцев
Сообщений: 10
Спасибок: 2
Скорости!!!
Не в сети
Профиль  
 Добавлено: 2012-09-08 19:40 (спустя 4 часа)
Аватара пользователя
Стаж: 4 года 3 месяца
Возраст: 31
Сообщений: 12
Спасибок: 120
Раздают: [ 110 | 14 MB/s ] Качают: [ 10 | 7 MB/s ] зажрались... :men:
_________________
ИзображениеИзображение
ИзображениеИзображение
Не в сети
Профиль  
Начать новую темуОтветить на тему  [ Сообщений: 3 ] 
Вы не можете начинать темы
Вы не можете отвечать на сообщения
Вы не можете редактировать свои сообщения
Вы не можете удалять свои сообщения