Правила форума

  • В этом разделе создание новых тем Запрещено.
  • Для создания новых тем пользуйтесь Корневым разделом DVD и HD фильмы.
Начать новую темуОтветить на тему  [ Сообщений: 3 ] 
Торрент файл
Размер: 3.62 GB • Зарегистрирован: 2 года 10 месяцев • Статус: Проверено
Скачан: 16 раз • Желающих скачать: 0 • Поблагодарили: 9 раз
 Раздают: 0  |  0 KB/s  ]   Качают: 0  |  0 KB/s  ] 
 Полного источника не было 1 год 11 месяцев 
Сообщения
 Добавлено: 2014-02-02 10:20
Аватара пользователя
Стаж: 3 года 6 месяцев
Сообщений: 175
Спасибок: 4258
Лайков: 29
Людоед / Ravenous

«Get a taste for terror»

Изображение


Год выпуска: 1999
Страна: Чехия, Великобритания, США (Twentieth Century Fox Film, Heyday Films, Engulf & Devour Productions)
Жанр: Ужасы, триллер, драма
Продолжительность: 01:40:46
Перевод: Профессиональный (многоголосый закадровый) [Позитив-Мультимедиа], Авторский одноголосый [Дмитрий "Гоблин" Пучков]

Режиссёр: Антония Бёрд
В ролях: Гай Пирс, Роберт Карлайл, Дэвид Аркетт, Джереми Дейвис, Джеффри Джонс, Джон Спенсер, Стивен Спинелла, Нил МакДонаф, Джозеф Раннингфокс, Билл Брочтрап
Описание: Действие фильма происходит в 1847 году, в период войны Америки с Мексикой. Капитана Джона Бойда чествуют и награждают различными медалями, однако он не рад этим обстоятельствам. Причиной его чествования стал захват ставки противника в одиночку, но только он один знает все обстоятельства столь смелого поступка — он просто струсил, бросил оружие и притворился мёртвым. Так он пролежал длительное время среди мёртвых товарищей, а впоследствии в состоянии аффекта поубивал всех неприятелей. Однако продвижения по службе Джон не получил, вместо этого его направляют в одинокий форт в горах Калифорнии.

Через некоторое время в форт приходит оборванный и изголодавшийся мужчина по имени Калхун. Из его истории становится ясно, что он был членом каравана, который вёл проводник. Проводник заблудился и люди, в связи с наступившей зимой, поселились в пещере. Однако запасов еды было мало и в тот момент, когда они кончились люди начали поедать друг друга. Калхуну удалось бежать.
Бюджет: $12 000 000
Изображение 7.316 (4009)
Изображение 7.1 / 10

Качество: WEBDL 720p
Формат: MKV
Видео кодек: AVC
Аудио кодек: AC3 (Dolby Digital)
Видео: 1280x542 (2.35:1), 23.976 fps, MPEG-4 AVC, 3 830 Kbps
Аудио #1: AC3, 448 Kbps, 48.0 KHz, 6 ch (Rus)
Аудио #2: AC3, 384 Kbps, 48.0 KHz, 6 ch (Rus)
Аудио #3: AC3, 384 Kbps, 48.0 KHz, 6 ch (Eng) [Оригинальная звуковая дорожка]
Скриншоты
Изображение
Изображение
Изображение
Свернуть

MediaInfo
General
Unique ID : 170332040424730142241055848024712543512 (0x8024C1F98FBF59EC91786D0CF649FD18)
Complete name : F:\ФИЛЬМЫ\Ravenous.mkv
Format : Matroska
Format version : Version 2
File size : 3.62 GiB
Duration : 1h 40mn
Overall bit rate : 5 148 Kbps
Encoded date : UTC 2014-02-01 18:57:31
Writing application : mkvmerge v5.4.0 ('Piper') built on Mar 10 2012 13:34:39
Writing library : libebml v1.2.3 + libmatroska v1.3.0

Video
ID : 1
Format : AVC
Format/Info : Advanced Video Codec
Format profile : Main@L3.1
Format settings, CABAC : No
Format settings, ReFrames : 2 frames
Codec ID : V_MPEG4/ISO/AVC
Duration : 1h 40mn
Bit rate : 3 830 Kbps
Width : 1 280 pixels
Height : 542 pixels
Display aspect ratio : 2.35:1
Frame rate mode : Constant
Frame rate : 23.976 fps
Color space : YUV
Chroma subsampling : 4:2:0
Bit depth : 8 bits
Scan type : Progressive
Bits/(Pixel*Frame) : 0.230
Stream size : 2.70 GiB (74%)
Title : Ravenous / Людоед (1999)
Language : English
Default : Yes
Forced : No
Color primaries : BT.709
Transfer characteristics : BT.709
Matrix coefficients : BT.709

Audio #1
ID : 2
Format : AC-3
Format/Info : Audio Coding 3
Mode extension : CM (complete main)
Format settings, Endianness : Big
Codec ID : A_AC3
Duration : 1h 40mn
Bit rate mode : Constant
Bit rate : 448 Kbps
Channel(s) : 6 channels
Channel positions : Front: L C R, Side: L R, LFE
Sampling rate : 48.0 KHz
Bit depth : 16 bits
Compression mode : Lossy
Stream size : 323 MiB (9%)
Title : MVO (Russian) Позитив-Мультимедиа
Language : Russian
Default : Yes
Forced : No

Audio #2
ID : 3
Format : AC-3
Format/Info : Audio Coding 3
Mode extension : CM (complete main)
Format settings, Endianness : Big
Codec ID : A_AC3
Duration : 1h 40mn
Bit rate mode : Constant
Bit rate : 384 Kbps
Channel(s) : 6 channels
Channel positions : Front: L C R, Side: L R, LFE
Sampling rate : 48.0 KHz
Bit depth : 16 bits
Compression mode : Lossy
Stream size : 277 MiB (7%)
Title : AVO (Д.Ю.Пучков "Goblin")
Language : Russian
Default : No
Forced : No

Audio #3
ID : 4
Format : AC-3
Format/Info : Audio Coding 3
Mode extension : CM (complete main)
Format settings, Endianness : Big
Codec ID : A_AC3
Duration : 1h 40mn
Bit rate mode : Constant
Bit rate : 384 Kbps
Channel(s) : 6 channels
Channel positions : Front: L C R, Side: L R, LFE
Sampling rate : 48.0 KHz
Bit depth : 16 bits
Compression mode : Lossy
Stream size : 277 MiB (7%)
Title : Original (English)
Language : English
Default : No
Forced : No

Menu
00:00:00.000 : en:Reluctant Hero (Main Titles)
00:06:19.000 : en:Welcome to Fort Spencer
00:09:15.000 : en:I Was Buried
00:13:50.000 : en:The Stranger
00:16:15.000 : en:Colqhoun's Story
00:22:51.000 : en:Weendigo
00:24:21.000 : en:The Rescue Party
00:27:11.000 : en:A Certain Verility
00:29:54.000 : en:He Was Licking Me
00:31:47.000 : en:The Cave
00:40:03.000 : en:The Hunt
00:45:43.000 : en:Hunger Strikes
00:52:02.000 : en:Boyd Reborn
00:54:18.000 : en:You Give Yourself
00:57:06.000 : en:The New Colonel
01:01:49.000 : en:Cannibal Fantasy
01:03:07.000 : en:Checkmate
01:04:21.000 : en:Black Thoughts
01:09:42.000 : en:Martha, Cleaves & The Horses
01:12:59.000 : en:Ives' Accomplice
01:16:47.000 : en:Manifest Destiny
01:19:57.000 : en:Eat to Live . . .
01:21:56.000 : en:Change of Hart
01:26:45.000 : en:Forks and Knives
01:32:35.000 : en:The Circle Closes / A Hero At Last
01:37:09.000 : en:End Titles
Свернуть
Не в сети
Профиль  
 Добавлено: 2014-02-02 16:17 (спустя 5 часов)
Пользователь забанен
Аватара пользователя
Стаж: 7 лет 6 месяцев
Сообщений: 29
Лайков: 1
Познавательный такой фильмец.
Теперь понятно, откуда у нас так много во власти лощёных откормленных упырей. И такая удручающая статистика по пропавшим без вести...
Не в сети
Профиль  
 Добавлено: 2014-02-18 07:20 (спустя 15 дней)
Модератор
Аватара пользователя
Стаж: 8 лет 2 месяца
Возраст: 30
Сообщений: 3202
Спасибок: 2960
Лайков: 206
Фильму поставлю 5 с +. Даже комментировать не буду, это - нужно смотреть :men:
_________________

ИзображениеПравила Создание релизов от А до Я
Не в сети
Профиль  
Начать новую темуОтветить на тему  [ Сообщений: 3 ] 
Вы не можете начинать темы
Вы не можете отвечать на сообщения
Вы не можете редактировать свои сообщения
Вы не можете удалять свои сообщения