Правила форума

  • В этом разделе создание новых тем Запрещено.
  • Для создания новых тем пользуйтесь Корневым разделом DVD и HD фильмы.
Начать новую темуОтветить на тему  [ Сообщений: 6 ] 
Торрент файл
Размер: 18.79 GB • Зарегистрирован: 4 года 3 месяца • Статус: Проверено
Скачан: 27 раз • Желающих скачать: 0 • Поблагодарили: 11 раз
 Раздают: 0  |  0 KB/s  ]   Качают: 1  |  0 KB/s  ] 
 Полного источника не было 2 года 6 месяцев 
Сообщения
 Добавлено: 2012-08-11 12:52
Top-releaser
Стаж: 4 года 11 месяцев
Сообщений: 311
Спасибок: 3510
Лайков: 2
Изображение

Луна 2112
Moon


«Обратная сторона будущего»

Год выпуска: 2009
Страна: Изображение Великобритания, Liberty Films UK, Limelight Fund, Lunar Industries, Xingu Films
Жанр: Фантастика, Драма, Детектив
Продолжительность: 01:37:10
Перевод: Профессиональный (лицензия) + Оригинал

Режиссер: Дункан Джонс

В ролях: Сэм Рокуэлл, Кевин Спейси, Доминик МакЭллигот, Рози Шоу, Эдриэнн Шоу, Кая Скоделарио, Бенедикт Вонг, Мэтт Берри, Малкольм Стюарт, Робин Чок и др.

Описание: Контракт Сэма подходит к концу: он провел три года на Луне, следя за автоматизированной станцией по добыче редкого газа H3. Три долгих года в полном одиночестве, если не считать говорящего робота ГЕРТИ, могут изменить любого. За две недели до возвращения на землю Сэм встречает своего сменщика — человека, как две капли воды похожего на него. Может, это галлюцинация? Или плод его больного воображения? Может, что-то случилось на Земле, и видеосообщения из дома, поддерживавшие Сэма все эти годы, — ложь?

ИзображениеИзображение

Бюджет: $5 000 000
Сборы в мире: $9 760 104
Сборы в США: $5 010 163
Мировая премьера: 23 января 2009

Качество: BDRemux
Формат: MKV
Видео: AVC, 1920x1080 (16:9), 23.976 fps, 24.1 Mbps (0.485 bit/pixel)
Аудио #1: ИзображениеРусский AVC, 1920x1080 (16:9), 23.976 fps, 24.1 Mbps (0.485 bit/pixel)
Аудио #2: ИзображениеDTS, 48.0 KHz, 6 ch, 1 510 Kbps, CBR (English)
Раздача группы: Изображение

MediaInfo
General
Unique ID : 184672401992358640530752231607391869102 (0x8AEE9C6347CE304DA0129F46D671D8AE)
Complete name : D:\moon.2009.1080p.BDRemux.NNM-Club.ru.mkv
Format : Matroska
Format version : Version 2
File size : 18.8 GiB
Duration : 1h 37mn
Overall bit rate mode : Variable
Overall bit rate : 27.7 Mbps
Movie name : Moon (2009)
Encoded date : UTC 2012-07-27 19:35:23
Writing application : mkvmerge v3.3.0 ('Language') built on Mar 24 2010 14:59:24
Writing library : libebml v0.8.0 + libmatroska v0.9.0

Video
ID : 1
Format : AVC
Format/Info : Advanced Video Codec
Format profile : High@L4.1
Format settings, CABAC : Yes
Format settings, ReFrames : 2 frames
Format settings, GOP : M=1, N=10
Codec ID : V_MPEG4/ISO/AVC
Duration : 1h 37mn
Bit rate mode : Variable
Bit rate : 24.1 Mbps
Width : 1 920 pixels
Height : 1 080 pixels
Display aspect ratio : 16:9
Frame rate : 23.976 fps
Color space : YUV
Chroma subsampling : 4:2:0
Bit depth : 8 bits
Scan type : Progressive
Bits/(Pixel*Frame) : 0.485
Stream size : 16.4 GiB (87%)
Title : Moon (2009)
Default : Yes
Forced : No

Audio #1
ID : 2
Format : DTS
Format/Info : Digital Theater Systems
Codec ID : A_DTS
Duration : 1h 37mn
Bit rate mode : Constant
Bit rate : 1 510 Kbps
Channel(s) : 6 channels
Channel positions : Front: L C R, Side: L R, LFE
Sampling rate : 48.0 KHz
Bit depth : 24 bits
Compression mode : Lossy
Stream size : 1.02 GiB (5%)
Title : Multi VoiceOver
Language : Russian
Default : Yes
Forced : No

Audio #2
ID : 3
Format : DTS
Format/Info : Digital Theater Systems
Codec ID : A_DTS
Duration : 1h 37mn
Bit rate mode : Constant
Bit rate : 1 510 Kbps
Channel(s) : 6 channels
Channel positions : Front: L C R, Side: L R, LFE
Sampling rate : 48.0 KHz
Bit depth : 24 bits
Compression mode : Lossy
Stream size : 1.02 GiB (5%)
Title : Original
Language : English
Default : No
Forced : No

Text #1
ID : 4
Format : UTF-8
Codec ID : S_TEXT/UTF8
Codec ID/Info : UTF-8 Plain Text
Language : Russian
Default : No
Forced : No

Text #2
ID : 5
Format : UTF-8
Codec ID : S_TEXT/UTF8
Codec ID/Info : UTF-8 Plain Text
Language : English
Default : No
Forced : No

Menu
00:00:00.000 : en:00:00:00.000
00:05:41.967 : en:00:05:41.967
00:11:05.164 : en:00:11:05.164
00:18:00.955 : en:00:18:00.955
00:22:58.836 : en:00:22:58.836
00:28:47.976 : en:00:28:47.976
00:34:35.907 : en:00:34:35.907
00:42:52.987 : en:00:42:52.987
00:47:28.012 : en:00:47:28.012
00:54:35.939 : en:00:54:35.939
01:01:55.211 : en:01:01:55.211
01:07:38.221 : en:01:07:38.221
01:13:15.182 : en:01:13:15.182
01:16:49.939 : en:01:16:49.939
01:22:32.656 : en:01:22:32.656
01:30:40.143 : en:01:30:40.143
Свернуть

Скриншоты

Изображение

Изображение

Изображение

Свернуть


Последний раз редактировалось Vladyagudin1996 2012-09-01 19:26, всего редактировалось 2 раз(а).
Не в сети
Профиль  
 Добавлено: 2012-08-13 09:36 (спустя 1 день 20 часов)
Стаж: 7 лет 9 месяцев
Сообщений: 35
интересный фильм
Не в сети
Профиль  
 Добавлено: 2012-08-14 12:52 (спустя 1 день 3 часа)
Top-releaser
Стаж: 4 года 11 месяцев
Сообщений: 311
Спасибок: 3510
Лайков: 2

Оккама:

интересный фильм
:a_g_a: :dan_ser:
Не в сети
Профиль  
 Добавлено: 2012-08-14 18:34 (спустя 5 часов)
Аватара пользователя
Стаж: 8 лет
Сообщений: 1389
Спасибок: 39
Лайков: 63
Moonrise Kingdom эт вот ваще что viewtopic.php?f=254&t=476007 Оргинальное название вродь чётко на постере :ni_zia:
Перевод: Профессиональный! Прикольно, хоть в теме и написано МВО тут тож не помешает пометить.


Последний раз редактировалось ferguson 2012-08-15 18:53, всего редактировалось 1 раз.
Не в сети
Профиль  
 Добавлено: 2012-08-16 21:58 (спустя 2 дня 3 часа)
Стаж: 7 лет 2 месяца
Сообщений: 81
Бюджет и сборы не большие,но фильм хороший.
Не в сети
Профиль  
 Добавлено: 2012-08-17 00:37 (спустя 2 часа 39 минут)
Top-releaser
Стаж: 4 года 11 месяцев
Сообщений: 311
Спасибок: 3510
Лайков: 2

Toliknub:

Бюджет и сборы не большие,но фильм хороший.
Согласен
Не в сети
Профиль  
Начать новую темуОтветить на тему  [ Сообщений: 6 ] 
Вы не можете начинать темы
Вы не можете отвечать на сообщения
Вы не можете редактировать свои сообщения
Вы не можете удалять свои сообщения