Правила форума

  • В этом разделе создание новых тем Запрещено.
  • Для создания новых тем пользуйтесь Корневым разделом DVD и HD фильмы.
Начать новую темуОтветить на тему  [ Сообщений: 3 ] 
Торрент файл
Размер: 4.68 GB • Зарегистрирован: 4 года 4 месяца • Статус: Проверено
Скачан: 103 раза • Желающих скачать: 0 • Поблагодарили: 25 раз
 Раздают: 0  |  0 KB/s  ]   Качают: 0  |  0 KB/s  ] 
 Полного источника не было 5 дней 
Сообщения
 Добавлено: 2012-07-14 20:04
Аватара пользователя
Стаж: 8 лет 11 месяцев
Возраст: 26
Сообщений: 1723
Спасибок: 1538
Лайков: 8
Луна 2112 / Moon


«Обратная сторона будущего»

Изображение
Год выпуска: 2009
Страна: Великобритания
Жанр: фантастика, драма, детектив
Продолжительность: 01:37:09
Перевод: Профессиональный (многоголосый, закадровый) + Оригинал + Субтитры (Русские)

Режиссер: Дункан Джонс
Сценарий: Натан Паркер, Дункан Джонс
Продюсер: Труди Стайлер, Стюарт Фенеган, Тревор Битти
Оператор: Гари Шоу
Композитор: Клинт Мэнселл

В ролях: Сэм Рокуэлл, Кевин Спейси, Доминик МакЭллигот, Рози Шоу, Эдриэнн Шоу, Кая Скоделарио, Бенедикт Вонг, Мэтт Берри, Малкольм Стюарт, Робин Чок

Описание: Контракт Сэма подходит к концу: он провел три года на Луне, следя за автоматизированной станцией по добыче редкого газа. Три долгих года в полном одиночестве, если не считать говорящего робота ГЕРТИ, могут изменить любого. За две недели до возвращения на землю Сэм встречает своего сменщика — человека, как две капли воды похожего на него. Может, это галлюцинация? Или плод его больного воображения? Может, что-то случилось на Земле, и видеосообщения из дома, поддерживавшие Сэма все эти годы, — ложь?

Раздача: Изображение

kinopoisk.ru: 7.750 (34627)

Доп. информация
Бюджет: $5 000 000
Сборы в мире: $9 760 104
Премьера (мир): 23 января 2009
Рейтинг R — Restricted. Подростки до 17 лет допускаются на фильм только в сопровождении одного из родителей
Изображение
Ограничение — до 17 лет требуется сопровождение родителя или взрослого опекуна (возраст может меняться в некоторых регионах). Данный рейтинг показывает, что оценочная комиссия заключила, что некоторый материал оценённого фильма предназначается для взрослых. Родители должны больше узнать о фильме прежде, чем взять на его просмотр детей. Рейтинг R также может быть назначен из-за используемого в фильме языка, темы, насилия, секса или изображения употребления наркотиков.
Свернуть
Свернуть
Знаете ли вы, что...
Фильм снят за 33 дня.
По словам режиссера Дункана Джонса, фильм был показан некоторым специалистам из NASA, которые поинтересовались, почему добыча газа H3 (helium-3) велась на обратной стороне Луны, когда как на видимой части, H3 есть в большем количестве. Выбор обратной стороны Луны для добычи газа объяснили опасением навредить живой природе.
Сцены на поверхности Луны были сняты с использованием миниатюрных моделей. Съёмки заняли более трёх дней.
Снят во время забастовки сценаристов, из-за которой многие другие проекты были остановлены. Режиссер Дункан Джонс говорит, что ему благодаря затишью удалось набрать в команду первоклассных мастеров по спецэффектам.
Песня, которая играет у Сэма на будильнике, это сингл 1991 года британского исполнителя Чесни Хоукса (Chesney Hawkes) - «The One and Only».
Название 사랑 (SARANG) в переводе с корейского - «Любовь».
Свернуть
Награды и номинации
 Британская академия, 2010 год
Победитель:
  • Лучший дебют (Дункан Джонс)
Номинации:
  • Лучший британский фильм

 Сатурн, 2010 год
Номинации:
  • Лучший актер (Сэм Рокуэлл)
  • Лучший научно-фантастический фильм
Свернуть
MediaInfo
Общее
Уникальный идентификатор : 173180197562880580425157473797697922029 (0x82494AF6A725E8B3A1D006CCF4BB63ED)
Полное имя : C:\Users\User\Desktop\Moon.2009.BDRip.720p[R.G.KINOvNINO].mkv
Формат : Matroska
Размер файла : 4,68 Гбайт
Продолжительность : 1 ч. 37 м.
Общий поток : 6890 Кбит/сек
Дата кодирования : UTC 2009-11-16 19:09:44
Программа кодирования : mkvmerge v2.1.0 ('Another Place To Fall') built on Aug 19 2007 13:40:07
Библиотека кодирования : libebml v0.7.7 + libmatroska v0.8.1

Видео
Идентификатор : 1
Формат : AVC
Формат/Информация : Advanced Video Codec
Профиль формата : High@L4.1
Параметр CABAC формата : Да
Параметр ReFrames формата : 5 кадров
Идентификатор кодека : V_MPEG4/ISO/AVC
Продолжительность : 1 ч. 37 м.
Битрейт : 4931 Кбит/сек
Ширина : 1280 пикс.
Высота : 528 пикс.
Соотношение сторон : 2,40:1
Частота кадров : 23,976 кадр/сек
Цветовое пространство : YUV
Подвыборка цветности : 4:2:0
Битовая глубина : 8 бит
Тип развёртки : Прогрессивная
Бит/(Пиксели*Кадры) : 0.304
Размер потока : 3,25 Гбайт (70%)
Библиотека кодирования : x264 core 79 r1342 e8501ef
Настройки программы : cabac=1 / ref=5 / deblock=1:0:0 / analyse=0x3:0x133 / me=umh / subme=7 / psy=1 / psy_rd=1.0:0.0 / mixed_ref=1 / me_range=16 / chroma_me=1 / trellis=1 / 8x8dct=1 / cqm=0 / deadzone=21,11 / chroma_qp_offset=-2 / threads=12 / nr=0 / decimate=1 / mbaff=0 / constrained_intra=0 / bframes=3 / b_pyramid=0 / b_adapt=2 / b_bias=0 / direct=1 / wpredb=1 / wpredp=2 / keyint=250 / keyint_min=25 / scenecut=40 / rc_lookahead=40 / rc=2pass / mbtree=1 / bitrate=4931 / ratetol=1.0 / qcomp=0.60 / qpmin=10 / qpmax=51 / qpstep=4 / cplxblur=20.0 / qblur=0.5 / ip_ratio=1.40 / aq=1:1.00

Аудио #1
Идентификатор : 2
Формат : AC-3
Формат/Информация : Audio Coding 3
Расширение режима : CM (complete main)
Идентификатор кодека : A_AC3
Продолжительность : 1 ч. 37 м.
Вид битрейта : Постоянный
Битрейт : 448 Кбит/сек
Каналы : 6 каналов
Расположение каналов : Front: L C R, Side: L R, LFE
Частота : 48,0 КГц
Битовая глубина : 16 бит
Метод сжатия : С потерями
Размер потока : 311 Мбайт (7%)
Язык : Russian

Аудио #2
Идентификатор : 3
Формат : DTS
Формат/Информация : Digital Theater Systems
Идентификатор кодека : A_DTS
Продолжительность : 1 ч. 37 м.
Вид битрейта : Постоянный
Битрейт : 1510 Кбит/сек
Каналы : 6 каналов
Расположение каналов : Front: L C R, Side: L R, LFE
Частота : 48,0 КГц
Битовая глубина : 24 бит
Метод сжатия : С потерями
Размер потока : 1,02 Гбайт (22%)
Язык : English

Текст
Идентификатор : 4
Формат : UTF-8
Идентификатор кодека : S_TEXT/UTF8
Идентификатор кодека/Информация : UTF-8 Plain Text
Язык : English
Свернуть


Качество: BDRip 720p
Формат: MKV
Видео: 1280x528, ~4931 kbps, 23.976 fps, 0.304 bit/pixel
Аудио #1: AC3, ~448 kbps, 48 kHz, 6 channels (RUS)
Аудио #2: DTS 5.1, ~1510 kbps, 48 kHz, 6 channels (ENG)

Скриншоты

Изображение

Изображение

Изображение

Свернуть
Не в сети
Профиль  
 Добавлено: 2012-08-20 12:41 (спустя 1 месяц 5 дней)
Аватара пользователя
Стаж: 8 лет
Сообщений: 32
посмотрим)) :st_ruskiy:
Не в сети
Профиль  
 Добавлено: 2012-12-01 19:15 (спустя 3 месяца 12 дней)
Стаж: 4 года 2 месяца
Сообщений: 8
редкостная херотень .
Не в сети
Профиль  
Начать новую темуОтветить на тему  [ Сообщений: 3 ] 
Вы не можете начинать темы
Вы не можете отвечать на сообщения
Вы не можете редактировать свои сообщения
Вы не можете удалять свои сообщения