Правила форума

  • В этом разделе создание новых тем Запрещено.
  • Для создания новых тем пользуйтесь Корневым разделом DVD и HD фильмы.
Начать новую темуОтветить на тему  [ Сообщений: 4 ] 
Торрент файл
Размер: 5.3 GB • Зарегистрирован: 2 года • Статус: Проверено
Скачан: 145 раз • Желающих скачать: 0 • Поблагодарили: 35 раз
 Раздают: 0  |  0 KB/s  ]   Качают: 0  |  0 KB/s  ] 
 Полного источника не было 5 дней 
Сообщения
 Добавлено: 2014-11-22 10:42
DVD Release Group
Аватара пользователя
Стаж: 7 лет 1 месяц
Сообщений: 3559
Спасибок: 247369
Лайков: 1018
Люси

Lucy


Изображение


Год выпуска: 2014
Страна: Франция
Жанр: Боевик, фантастика
Продолжительность: 01:29:20
Перевод: Профессиональный (полное дублирование)
Субтитры: Русские, английские, украинские
Режиссер: Люк Бессон
В ролях: Скарлетт Йоханссон, Морган Фримен, Аналей Типтон, Мин Сик Чхве, Амр Вакид, Мэйсон Ли, Йохан Филип Асбек, Фредерик Чау, Клер Трэн, Жан Оливер Шредер
Описание: Еще вчера она была просто сексапильной блондинкой, а сегодня – самое опасное и смертоносное создание на планете со сверхъестественными способностями и интеллектом. То, что совсем недавно лучшие умы мира считали фантастической теорией, для нее стало реальностью. И теперь из добычи она превратится в охотницу.
Изображение
Качество: BDRip 720p
Формат: MKV
Видео кодек: H.264
Аудио кодек: DTS, AC3
Видео: 1280x536 23.98fps 5413kbps
Аудио:
Аудио Rus: AC3 48kHz 6ch 640kbps
Аудио Rus: DTS 48kHz 6ch 768kbps
Аудио Eng: DTS 48kHz 6ch 1510kbps
"MediaInfo"
Формат : Matroska
Версия формата : Version 4 / Version 2
Размер файла : 5,30 Гбайт
Продолжительность : 1 ч. 29 м.
Общий поток : 8499 Кбит/сек
Название фильма : Lucy.2014.D.BDRip.720p
Дата кодирования : UTC 2014-11-22 07:00:09
Программа кодирования : mkvmerge v7.3.0 ('Nouages') 64bit built on Oct 22 2014 18:53:34
Библиотека кодирования : libebml v1.3.0 + libmatroska v1.4.1
Attachements : CoverCommander.jpg

Видео
Идентификатор : 1
Формат : AVC
Формат/Информация : Advanced Video Codec
Профиль формата : High@L4.1
Параметр CABAC формата : Да
Параметр ReFrames формата : 12 кадров
Идентификатор кодека : V_MPEG4/ISO/AVC
Продолжительность : 1 ч. 29 м.
Битрейт : 5413 Кбит/сек
Ширина : 1280 пикселей
Высота : 536 пикселей
Соотношение сторон : 2,40:1
Режим частоты кадров : Постоянный
Частота кадров : 23,976 кадра/сек
Цветовое пространство : YUV
Субдискретизация насыщенности : 4:2:0
Битовая глубина : 8 бит
Тип развёртки : Прогрессивная
Бит/(Пиксели*Кадры) : 0.329
Размер потока : 3,38 Гбайт (64%)
Заголовок : Lucy.2014.D.BDRip.720p
Библиотека кодирования : x264 core 142 r2431kMod ac76440
Настройки программы : cabac=1 / ref=12 / deblock=1:-3:-3 / analyse=0x3:0x133 / me=umh / subme=10 / psy=1 / fade_compensate=0.00 / psy_rd=1.05:0.00 / mixed_ref=1 / me_range=24 / chroma_me=1 / trellis=2 / 8x8dct=1 / cqm=0 / deadzone=21,11 / fast_pskip=0 / chroma_qp_offset=-2 / threads=24 / lookahead_threads=4 / sliced_threads=0 / nr=0 / decimate=0 / interlaced=0 / bluray_compat=0 / constrained_intra=0 / fgo=0 / bframes=7 / b_pyramid=2 / b_adapt=2 / b_bias=0 / direct=3 / weightb=1 / open_gop=0 / weightp=2 / keyint=250 / keyint_min=23 / scenecut=40 / intra_refresh=0 / rc=crf / mbtree=0 / crf=15.5000 / qcomp=0.65 / qpmin=0 / qpmax=69 / qpstep=4 / ip_ratio=1.25 / pb_ratio=1.15 / aq=1:0.85
Default : Да
Forced : Нет

Аудио #1
Идентификатор : 2
Формат : AC-3
Формат/Информация : Audio Coding 3
Расширение режима : CM (complete main)
Параметр Endianness формата : Big
Идентификатор кодека : A_AC3
Продолжительность : 1 ч. 29 м.
Вид битрейта : Постоянный
Битрейт : 640 Кбит/сек
Каналы : 6 каналов
Расположение каналов : Front: L C R, Side: L R, LFE
Частота : 48,0 КГц
Битовая глубина : 16 бит
Метод сжатия : С потерями
Размер потока : 409 Мбайт (8%)
Заголовок : AC3-640 kbps BD EUR
Язык : Russian
Default : Да
Forced : Да

Аудио #2
Идентификатор : 3
Формат : DTS
Формат/Информация : Digital Theater Systems
Режим : 16
Параметр Endianness формата : Big
Идентификатор кодека : A_DTS
Продолжительность : 1 ч. 29 м.
Вид битрейта : Постоянный
Битрейт : 768 Кбит/сек
Каналы : 6 каналов
Расположение каналов : Front: L C R, Side: L R, LFE
Частота : 48,0 КГц
Битовая глубина : 24 бит
Метод сжатия : С потерями
Размер потока : 491 Мбайт (9%)
Заголовок : DUB - RUS - BD CEE - DTS, 48 KHz, 6 ch, 768 kbps, 24 bit ELEKTRI4KA
Язык : Russian
Default : Нет
Forced : Нет

Аудио #3
Идентификатор : 4
Формат : DTS
Формат/Информация : Digital Theater Systems
Режим : 16
Параметр Endianness формата : Big
Идентификатор кодека : A_DTS
Продолжительность : 1 ч. 29 м.
Вид битрейта : Постоянный
Битрейт : 1509 Кбит/сек
Каналы : 6 каналов
Расположение каналов : Front: L C R, Side: L R, LFE
Частота : 48,0 КГц
Битовая глубина : 24 бит
Метод сжатия : С потерями
Размер потока : 964 Мбайт (18%)
Заголовок : DTS 5.1 @ 1510 kbps
Язык : English
Default : Нет
Forced : Нет

Текст #1
Идентификатор : 5
Формат : UTF-8
Идентификатор кодека : S_TEXT/UTF8
Идентификатор кодека/Информация : UTF-8 Plain Text
Заголовок : Forced - RUS - BD CEE
Язык : Russian
Default : Да
Forced : Да

Текст #2
Идентификатор : 6
Формат : UTF-8
Идентификатор кодека : S_TEXT/UTF8
Идентификатор кодека/Информация : UTF-8 Plain Text
Заголовок : Full - RUS - BD CEE
Язык : Russian
Default : Нет
Forced : Нет

Текст #3
Идентификатор : 7
Формат : UTF-8
Идентификатор кодека : S_TEXT/UTF8
Идентификатор кодека/Информация : UTF-8 Plain Text
Заголовок : Full - UKR - BD CEE
Язык : Ukrainian
Default : Нет
Forced : Нет

Текст #4
Идентификатор : 8
Формат : UTF-8
Идентификатор кодека : S_TEXT/UTF8
Идентификатор кодека/Информация : UTF-8 Plain Text
Заголовок : Forced - ENG - BD CEE
Язык : English
Default : Нет
Forced : Нет

Меню
00:00:00.000 : en:Chapter 01
00:05:26.367 : en:Chapter 02
00:08:38.267 : en:Chapter 03
00:15:45.569 : en:Chapter 04
00:21:36.837 : en:Chapter 05
00:26:05.397 : en:Chapter 06
00:30:27.534 : en:Chapter 07
00:37:36.254 : en:Chapter 08
00:41:43.459 : en:Chapter 09
00:47:32.558 : en:Chapter 10
00:50:10.716 : en:Chapter 11
00:55:32.495 : en:Chapter 12
00:59:36.072 : en:Chapter 13
01:02:08.099 : en:Chapter 14
01:04:51.345 : en:Chapter 15
01:07:14.030 : en:Chapter 16
01:09:55.816 : en:Chapter 17
01:12:26.133 : en:Chapter 18
01:18:50.475 : en:Chapter 19
01:22:31.988 : en:Chapter 20
Свернуть

"Скриншоты"
Изображение
Изображение
Изображение
Свернуть
Не в сети
Профиль  
 Добавлено: 2014-11-24 17:58 (спустя 2 дня 7 часов)
Стаж: 8 лет 10 месяцев
Сообщений: 623
Лайков: 35
сделано красиво, но ожидал большего, или, возможно, просто другого. хотелось бешеного драйва, а тут углубление в высшие материи. хотя посмотреть однозначно стоит.
Не в сети
Профиль  
 Добавлено: 2014-11-24 20:45 (спустя 2 часа 46 минут)
Стаж: 8 лет 7 месяцев
Сообщений: 70
Почему бы не сделать разрешение картинки действительно на 720, а не на 536 ммм....?
Не в сети
Профиль  
 Добавлено: 2014-11-24 22:44 (спустя 1 час 59 минут)
DVD Release Group
Аватара пользователя
Стаж: 7 лет 1 месяц
Сообщений: 3559
Спасибок: 247369
Лайков: 1018
OLN
Ну сделайте.
Не в сети
Профиль  
Начать новую темуОтветить на тему  [ Сообщений: 4 ] 
Вы не можете начинать темы
Вы не можете отвечать на сообщения
Вы не можете редактировать свои сообщения
Вы не можете удалять свои сообщения