Правила форума

  • В этом разделе создание новых тем Запрещено.
  • Для создания новых тем пользуйтесь Корневым разделом DVD и HD фильмы.
Начать новую темуОтветить на тему  [ Сообщений: 5 ] 
Торрент файл
Размер: 10.01 GB • Зарегистрирован: 2 года 1 месяц • Статус: Проверено
Скачан: 251 раз • Желающих скачать: 0 • Поблагодарили: 76 раз
 Раздают: 0  |  0 KB/s  ]   Качают: 0  |  0 KB/s  ] 
 Полного источника не было 2 дня 19 часов 
Сообщения
 Добавлено: 2014-10-11 09:03
Аватара пользователя
Стаж: 9 лет 1 месяц
Сообщений: 8012
Спасибок: 122244
Лайков: 1193
Мачо и ботан 2 / 22 Jump Street

«Копам под прикрытием крыша не нужна»

Изображение


Год выпуска: 2014
Страна: Изображение США
Жанр: комедия, боевик, криминал
Продолжительность: 01:51:56
Субтитры: Русские, английские
Перевод: Профессиональный (полное дублирование) [Лицензия] + Авторский (одноголосый, закадровый) [А. Матвеев]


Режиссер: Фил Лорд, Кристофер Миллер
Сценарий: Майкл Бэколл, Орен Узил, Родни Ротман
Продюсер: Джона Хилл, Нил Х. Мориц, Ченнинг Татум
Оператор: Бэрри Петерсон
Композитор: Марк Мазерсбо

В ролях: Джона Хилл, Ченнинг Татум, Петер Стормаре, Уайатт Расселл, Эмбер Стивенс, Джиллиан Белл, Айс Кьюб, Ник Офферман, Джимми Татро

Описание: Офицерам Шмидту и Дженко теперь предстоит работать под прикрытием в местном колледже. Однако когда Дженко встречает родственную душу в футбольной команде, а Шмидт проникает в богемную среду, они начинают сомневаться в их товариществе…


Изображение Изображение


Раздача группы: Изображение


Качество: BDRip (1080p)
Формат: Matroska
Видео: MPEG-4 AVC, 8500 Кбит/с, 1920x802, 23.976 кадр/с
Аудио №1: Русский (AC3, 48,0 КГц, 6 ch, 640 Кбит/c) Дубляж
Аудио №2: Русский (DTS, 48,0 КГц, 6 ch, 1510 Кбит/c) А. Матвеев
Аудио №3: Украинский (AC3, 48,0 КГц, 6 ch, 640 Кбит/c)
Аудио №4: Английский (DTS, 48,0 КГц, 6 ch, 1510 Кбит/c)

MediaInfo
Формат : Matroska
Версия формата : Version 4 / Version 2
Размер файла : 10,0 Гбайт
Продолжительность : 1 ч. 51 м.
Общий поток : 12,8 Мбит/сек
Дата кодирования : UTC 2014-10-11 15:43:15
Программа кодирования : mkvmerge v6.1.0 ('Old Devil') built on Mar 4 2013 09:10:42
Библиотека кодирования : libebml v1.3.0 + libmatroska v1.4.0

Видео
Идентификатор : 1
Формат : AVC
Формат/Информация : Advanced Video Codec
Профиль формата : High@L4.1
Параметр CABAC формата : Да
Параметр ReFrames формата : 5 кадров
Идентификатор кодека : V_MPEG4/ISO/AVC
Продолжительность : 1 ч. 51 м.
Битрейт : 8500 Кбит/сек
Ширина : 1920 пикселей
Высота : 802 пикселя
Соотношение сторон : 2,40:1
Режим частоты кадров : Постоянный
Частота кадров : 23,976 кадра/сек
Цветовое пространство : YUV
Субдискретизация насыщенности : 4:2:0
Битовая глубина : 8 бит
Тип развёртки : Прогрессивная
Бит/(Пиксели*Кадры) : 0.230
Размер потока : 6,45 Гбайт (64%)
Библиотека кодирования : x264 core 142 r2431+42 c69a006 tMod [8-bit@4:2:0 X86_64]
Настройки программы : cabac=1 / ref=5 / deblock=1:-3:-3 / analyse=0x3:0x113 / me=umh / subme=11 / psy=1 / fade_compensate=0.00 / psy_rd=1.00:0.20 / mixed_ref=1 / me_range=32 / chroma_me=1 / trellis=2 / 8x8dct=1 / cqm=0 / deadzone=21,11 / fast_pskip=0 / chroma_qp_offset=-3 / threads=12 / lookahead_threads=2 / sliced_threads=0 / nr=0 / decimate=0 / interlaced=0 / bluray_compat=0 / constrained_intra=0 / fgo=0 / bframes=9 / b_pyramid=2 / b_adapt=2 / b_bias=0 / direct=3 / weightb=1 / open_gop=0 / weightp=2 / keyint=240 / keyint_min=23 / scenecut=40 / intra_refresh=0 / rc=2pass / mbtree=0 / bitrate=8500 / ratetol=1.0 / qcomp=0.60 / qpmin=0:0:0 / qpmax=69:69:69 / qpstep=4 / cplxblur=20.0 / qblur=0.5 / ip_ratio=1.40 / pb_ratio=1.30 / aq=4:0.80 / aq-sensitivity=10.00 / aq-factor=1.00:1.00:1.00 / aq2=0 / aq3=0
Default : Да
Forced : Нет

Аудио #1
Идентификатор : 2
Формат : AC-3
Формат/Информация : Audio Coding 3
Расширение режима : CM (complete main)
Параметр Endianness формата : Big
Идентификатор кодека : A_AC3
Продолжительность : 1 ч. 51 м.
Вид битрейта : Постоянный
Битрейт : 640 Кбит/сек
Каналы : 6 каналов
Расположение каналов : Front: L C R, Side: L R, LFE
Частота : 48,0 КГц
Битовая глубина : 16 бит
Метод сжатия : С потерями
Размер потока : 512 Мбайт (5%)
Заголовок : Dub
Язык : Russian
Default : Да
Forced : Нет

Аудио #2
Идентификатор : 3
Формат : DTS
Формат/Информация : Digital Theater Systems
Режим : 16
Параметр Endianness формата : Big
Идентификатор кодека : A_DTS
Продолжительность : 1 ч. 51 м.
Вид битрейта : Постоянный
Битрейт : 1509 Кбит/сек
Каналы : 6 каналов
Расположение каналов : Front: L C R, Side: L R, LFE
Частота : 48,0 КГц
Битовая глубина : 16 бит
Метод сжатия : С потерями
Размер потока : 1,18 Гбайт (12%)
Заголовок : АП (Матвеев (Doctor Joker)
Язык : Russian
Default : Нет
Forced : Нет

Аудио #3
Идентификатор : 4
Формат : AC-3
Формат/Информация : Audio Coding 3
Расширение режима : CM (complete main)
Параметр Endianness формата : Big
Идентификатор кодека : A_AC3
Продолжительность : 1 ч. 51 м.
Вид битрейта : Постоянный
Битрейт : 640 Кбит/сек
Каналы : 6 каналов
Расположение каналов : Front: L C R, Side: L R, LFE
Частота : 48,0 КГц
Битовая глубина : 16 бит
Метод сжатия : С потерями
Размер потока : 512 Мбайт (5%)
Заголовок : Dub
Язык : Ukrainian
Default : Нет
Forced : Нет

Аудио #4
Идентификатор : 5
Формат : DTS
Формат/Информация : Digital Theater Systems
Режим : 16
Параметр Endianness формата : Big
Идентификатор кодека : A_DTS
Продолжительность : 1 ч. 51 м.
Вид битрейта : Постоянный
Битрейт : 1509 Кбит/сек
Каналы : 6 каналов
Расположение каналов : Front: L C R, Side: L R, LFE
Частота : 48,0 КГц
Битовая глубина : 16 бит
Метод сжатия : С потерями
Размер потока : 1,18 Гбайт (12%)
Заголовок : Original
Язык : English
Default : Нет
Forced : Нет

Текст #1
Идентификатор : 6
Формат : UTF-8
Идентификатор кодека : S_TEXT/UTF8
Идентификатор кодека/Информация : UTF-8 Plain Text
Заголовок : Forced
Язык : Russian
Default : Да
Forced : Нет

Текст #2
Идентификатор : 7
Формат : UTF-8
Идентификатор кодека : S_TEXT/UTF8
Идентификатор кодека/Информация : UTF-8 Plain Text
Заголовок : Full
Язык : Russian
Default : Нет
Forced : Нет

Текст #3
Идентификатор : 8
Формат : UTF-8
Идентификатор кодека : S_TEXT/UTF8
Идентификатор кодека/Информация : UTF-8 Plain Text
Заголовок : Full
Язык : English
Default : Нет
Forced : Нет

Меню
00:00:00.000 : en:Chapter 01
00:06:21.798 : en:Chapter 02
00:13:09.371 : en:Chapter 03
00:19:57.362 : en:Chapter 04
00:26:32.173 : en:Chapter 05
00:31:30.096 : en:Chapter 06
00:36:47.246 : en:Chapter 07
00:43:49.251 : en:Chapter 08
00:51:46.394 : en:Chapter 09
00:58:58.409 : en:Chapter 10
01:07:30.588 : en:Chapter 11
01:16:28.250 : en:Chapter 12
01:23:02.602 : en:Chapter 13
01:29:51.677 : en:Chapter 14
01:35:25.469 : en:Chapter 15
01:41:57.194 : en:Chapter 16
Свернуть
Знаете ли вы, что...
Когда в начале фильма герои разговаривают с шефом полиции то Дженко (Ченнинг Татум) заявляет, что не против, если бы его взяли на секретную службу — защищать Белый дом. Это отсылка к его предыдущему фильму — «Штурм Белого дома» (2013) — где он как раз и играл агента, защищающего Белый дом.

Когда Шмидт едет на Lamborghini Murcielago, он говорит, что чувствует себя Бэтменом. В фильме «Бэтмен: Начало» (2005) Бэтмен ездил на Lamborghini Murcielago Roadster, а в фильме «Темный рыцарь» (2008) Бэтмен ездил на Lamborghini Murcielago LP640.

Уайатт Расселл отклонил роль в сиквелах «Голодных игр» в пользу «Мачо и ботан 2».

Из-за своих обязательств перед фильмом «Лего. Фильм» (2014) режиссеры Фил Лорд и Кристофер Миллер не вносили никаких корректив в сценарий до начала съемок.

В сценах во время весенних каникул можно заметить клуб/ресторан с названием «Gringo Pendejos», которое переводится примерно как «Тупицы американцы».

Вильгельмов крик доносится из лаборатории робототехники, когда Шмидт и Дженко вламываются в нее, убегая от «Призрака».

Шмидт говорит, что новый офис капитана Диксона выглядит как кубик льда (cube of ice). Актер, который исполняет роль Диксона, — это Айс Кьюб (Ice Cube).

Во время первой игры Дженко с Зуком, кто-то выкрикивает «Омаха» (Omaha) – это намек на Пейтона Мэннинга, который выкрикивал это слово во время игр плей-офф НФЛ 2014 года.

Сцены в финальных титрах были отсняты за один день, во время пост-продакшна, и смонтированы за месяц до выхода фильма в прокат.

Сет Роген появляется в качестве замены Джоны Хилла в конце фильма, в сценах пародии на сиквел. Одна из ранних ролей Хилла – это Сет в фильме «SuperПерцы» (2007), персонаж, которого Роген думал сыграть сам, когда начинал писать сценарий, будучи подростком.

Когда Шмидт и Дженко приходят к профессору психологии, на табличке на его двери написано «Майкл П. Мёрфи». Позже, на пресс-конференции, Харди произносит его имя неправильно — «Карл Мёрфи».

Сразу после сцены в библиотеке, когда Дженко прыгает через перила, видно, что его ботинки на плоской подошве, а должны быть бутсы.

В сцене, где Шмидт и Дженко находятся в мансарде дома братства, они держат планшет, с которого играет музыка, но по иконке на экране видно, что его звук выключен. Также в сцене, где набирают текст на смартфоне, слышны звуки от нажатия, но на экране устройства видна иконка, говорящая о том, что его звук выключен.

Во время сцены, где Зук говорит Дженко, что хочет, чтобы тот присоединился к братству, на гирях виден логотип Тулейнского университета.

Свернуть
Скриншоты
Изображение
Изображение
Изображение
Изображение
Свернуть
 sashannov нравится это.
В сети
Профиль  
 Добавлено: 2014-10-19 18:54 (спустя 8 дней)
Аватара пользователя
Стаж: 8 лет 9 месяцев
Сообщений: 651
Спасибок: 262
Лайков: 6
рейтинг 6,9....... первая часть вроде ничего была... но ЭТО ПОЛНОЕ Г
Не в сети
Профиль  
 Добавлено: 2014-10-22 03:04 (спустя 2 дня 8 часов)
Аватара пользователя
Стаж: 8 лет 9 месяцев
Сообщений: 1170
Спасибок: 1294
Лайков: 7

favers:

рейтинг 6,9....... первая часть вроде ничего была... но ЭТО ПОЛНОЕ Г

а по-моему, если их сравнивать, то эта поискрометней будет
 NiXon11 нравится это.
Не в сети
Профиль  
 Добавлено: 2014-11-09 06:13 (спустя 18 дней)
Аватара пользователя
Стаж: 7 лет 2 месяца
Сообщений: 119
Лайков: 2
Очень смешная комедия, спасибо за релиз :))
Не в сети
Профиль  
 Добавлено: 2014-11-13 20:25 (спустя 4 дня)
Стаж: 5 лет 6 месяцев
Сообщений: 99
Лайков: 5
не знаю, меня прям проперло!
Не в сети
Профиль  
Начать новую темуОтветить на тему  [ Сообщений: 5 ] 
Вы не можете начинать темы
Вы не можете отвечать на сообщения
Вы не можете редактировать свои сообщения
Вы не можете удалять свои сообщения