Правила форума

  • В этом разделе создание новых тем Запрещено.
  • Для создания новых тем пользуйтесь Корневым разделом DVD и HD фильмы.
Начать новую темуОтветить на тему  [ Сообщений: 2 ] 
Торрент файл
Размер: 5.05 GB • Зарегистрирован: 4 года 5 месяцев • Статус: Проверено
Скачан: 129 раз • Желающих скачать: 0 • Поблагодарили: 29 раз
 Раздают: 0  |  0 KB/s  ]   Качают: 0  |  0 KB/s  ] 
 Полного источника не было 2 месяца 14 дней 
Сообщения
 Добавлено: 2012-06-08 18:39
Модератор
Аватара пользователя
Стаж: 6 лет 10 месяцев
Возраст: 33
Сообщений: 5908
Спасибок: 61253
Лайков: 3540
Изображение

Мачо и ботан / 21 Jump Street


Год выпуска: 2012
Страна: США
Слоган: «Операция «Анти-косяк»
Жанр: боевик, комедия, криминал
Продолжительность: 01:49:37
Перевод: Профессиональный (полное дублирование)
Режиссер: Фил Лорд, Крис Миллер
Сценарий: Майкл Бэколл, Патрик Хэсбург, Стефен Дж. Кэннел
Продюсер: Стефен Дж. Кэннел, Нил Х. Мориц, Джона Хилл
Оператор: Бэрри Петерсон
Композитор: Марк Мазерсбо
В ролях: Джона Хилл, Ченнинг Татум, Бри Ларсон, Дэйв Франко, Роб Риггл, Айс Кьюб, ДеРэй Дэвис, Дакс Флэйм, Крис Парнелл, Элли Кемпер
Бюджет: $42 000 000
Сборы в США: $137 181 723
Сборы в России: $5 144 204
Сборы в мире: $191 451 106
Описание: Двое новоиспеченных горе-полицейских отправляются на сверхсекретное задание. Им предстоит заново стать учениками средней школы, в которой процветает наркоторговля.
Изображение
MPAA: Изображение
Мировая премьера: 12 марта 2012
Релиз на DVD: 15 мая 2012, «Columbia/Sony»
Релиз на Blu-ray: 7 августа 2012, «Columbia/Sony»
Раздача группы: Изображение
Качество: BDRip, 720p
Формат: Matroska
Видео: AVC; 1280x528 (2.40:1); 4055 Kbps; 23,976 fps; 0,250 bit/pixel
Аудио №1: Russian; AC3; 448 Kbps; CBR; 6 ch
Аудио №2: Ukrainian; AC3; 448 Kbps; CBR; 6 ch
Аудио №3: English; DTS; 1509 Kbps; CBR; 6 ch; 24 bit

Субтитры №1: Russian
Субтитры №2: English


"Знаете ли Вы, что..."
  • Джона Хилл написал эпизодическую роль специально для Джонни Деппа.
  • Эмма Стоун могла получить главную женскую роль, но она выбыла из проекта из-за несовпадения рабочих графиков в другом своем фильме - «Новый Человек-паук».
Свернуть
MediaInfo
Complete name : Macho.i.botan.2012.D.BDRip.720p.IRONCLUB.mkv
Format : Matroska
Format version : Version 2
File size : 5.05 GiB
Duration : 1h 49mn
Overall bit rate : 6 592 Kbps
Movie name : IRONCLUB
Encoded date : UTC 2012-06-08 10:56:55
Writing application : mkvmerge v4.9.1 ('Ich will') built on Jul 11 2011 23:53:15
Writing library : libebml v1.2.1 + libmatroska v1.1.1

Video
ID : 1
Format : AVC
Format/Info : Advanced Video Codec
Format profile : High@L4.1
Format settings, CABAC : Yes
Format settings, ReFrames : 5 frames
Codec ID : V_MPEG4/ISO/AVC
Duration : 1h 49mn
Bit rate : 4 184 Kbps
Width : 1 280 pixels
Height : 528 pixels
Display aspect ratio : 2.40:1
Frame rate : 23.976 fps
Color space : YUV
Chroma subsampling : 4:2:0
Bit depth : 8 bits
Scan type : Progressive
Bits/(Pixel*Frame) : 0.258
Stream size : 3.11 GiB (62%)
Title : 21 Jump Street (2012)
Writing library : x264 core 125 r2200 999b753
Encoding settings : cabac=1 / ref=5 / deblock=1:0:0 / analyse=0x3:0x133 / me=umh / subme=8 / psy=1 / psy_rd=1.00:0.00 / mixed_ref=1 / me_range=16 / chroma_me=1 / trellis=1 / 8x8dct=1 / cqm=0 / deadzone=21,11 / fast_pskip=1 / chroma_qp_offset=-2 / threads=24 / lookahead_threads=4 / sliced_threads=0 / nr=0 / decimate=1 / interlaced=0 / bluray_compat=0 / constrained_intra=0 / bframes=3 / b_pyramid=2 / b_adapt=1 / b_bias=0 / direct=1 / weightb=1 / open_gop=0 / weightp=2 / keyint=250 / keyint_min=23 / scenecut=40 / intra_refresh=0 / rc=2pass / mbtree=0 / bitrate=4184 / ratetol=1.0 / qcomp=0.60 / qpmin=0 / qpmax=69 / qpstep=4 / cplxblur=20.0 / qblur=0.5 / ip_ratio=1.40 / pb_ratio=1.30 / aq=1:1.00
Language : English
Default : Yes
Forced : Yes

Audio #1
ID : 2
Format : AC-3
Format/Info : Audio Coding 3
Mode extension : CM (complete main)
Format settings, Endianness : Big
Codec ID : A_AC3
Duration : 1h 49mn
Bit rate mode : Constant
Bit rate : 448 Kbps
Channel(s) : 6 channels
Channel positions : Front: L C R, Side: L R, LFE
Sampling rate : 48.0 KHz
Bit depth : 16 bits
Compression mode : Lossy
Stream size : 351 MiB (7%)
Title : DD 5.1 @ 448 kbps - Dub, R5
Language : Russian
Default : Yes
Forced : Yes

Audio #2
ID : 3
Format : AC-3
Format/Info : Audio Coding 3
Mode extension : CM (complete main)
Format settings, Endianness : Big
Codec ID : A_AC3
Duration : 1h 49mn
Bit rate mode : Constant
Bit rate : 448 Kbps
Channel(s) : 6 channels
Channel positions : Front: L C R, Side: L R, LFE
Sampling rate : 48.0 KHz
Bit depth : 16 bits
Compression mode : Lossy
Stream size : 351 MiB (7%)
Title : DD 5.1 @ 448 kbps - Dub, R5
Language : Ukrainian
Default : No
Forced : No

Audio #3
ID : 4
Format : DTS
Format/Info : Digital Theater Systems
Codec ID : A_DTS
Duration : 1h 49mn
Bit rate mode : Constant
Bit rate : 1 510 Kbps
Channel(s) : 6 channels
Channel positions : Front: L C R, Side: L R, LFE
Sampling rate : 48.0 KHz
Bit depth : 24 bits
Compression mode : Lossy
Stream size : 1.16 GiB (23%)
Title : DTS 5.1 @ 1536 kbps
Language : English
Default : No
Forced : No

Text #1
ID : 5
Format : UTF-8
Codec ID : S_TEXT/UTF8
Codec ID/Info : UTF-8 Plain Text
Title : Forced
Language : Russian
Default : No
Forced : No

Text #2
ID : 6
Format : UTF-8
Codec ID : S_TEXT/UTF8
Codec ID/Info : UTF-8 Plain Text
Title : Forced
Language : English
Default : No
Forced : No

Свернуть

Скриншоты

Изображение
Изображение
Изображение
Изображение
Изображение
Свернуть
_________________
ИзображениеИзображение Изображение
Изображение
 tany1984 нравится это.
Не в сети
Профиль  
 Добавлено: 2013-04-21 22:27 (спустя 10 месяцев)
Стаж: 3 года 10 месяцев
Сообщений: 2
На этот раз у меня получилось?
Не в сети
Профиль  
Начать новую темуОтветить на тему  [ Сообщений: 2 ] 
Вы не можете начинать темы
Вы не можете отвечать на сообщения
Вы не можете редактировать свои сообщения
Вы не можете удалять свои сообщения