Правила форума

  • В этом разделе создание новых тем Запрещено.
  • Для создания новых тем пользуйтесь Корневым разделом DVD и HD фильмы.
Начать новую темуОтветить на тему  [ Сообщений: 10 ] 
Торрент файл
Размер: 7.95 GB • Зарегистрирован: 4 года 2 месяца • Статус: Проверено
Скачан: 148 раз • Желающих скачать: 0 • Поблагодарили: 21 раз
 Раздают: 0  |  0 KB/s  ]   Качают: 0  |  0 KB/s  ] 
 Полного источника не было 1 месяц 9 дней 
Сообщения
 Добавлено: 2012-09-19 13:36
Аватара пользователя
Стаж: 5 лет 4 месяца
Возраст: 26
Сообщений: 1658
Спасибок: 45808
Лайков: 69
Макс Пэйн / Max Payne


«New York. Fugitive undercover cop. Nothing to lose».

Изображение
Изображение
Год выпуска: 2008
ИзображениеСтрана: Изображение Изображение
ИзображениеЖанр: Боевик, триллер, драма, криминал
ИзображениеПродолжительность: 01:39:52
ИзображениеПеревод: Профессиональный (полное дублирование)

ИзображениеРежиссёр: Джон Мур

ИзображениеВ ролях: Марк Уолберг, Мила Кунис, Бо Бриджес, Лудакрис, Крис О`Доннелл, Донал Лог, Амори Ноласко, Кейт Бертон, Ольга Куриленко, Ротафорд Грэй


Описание: Сотруднику Управления по борьбе с наркотиками не на что жаловаться. У него есть все: отличная работа, любящая жена и маленькая дочурка. Словом, не жизнь, а американская мечта, которая однажды оборачивается самым страшным кошмаром: какой-то психопат убивает его жену и дочь. Отныне у Макса только одна цель — отомстить. Но месть осложняется тем, что его несправедливо обвиняют в убийстве, и все, кому не лень, начинают на него охоту — Полицейское управление Нью-Йорка, уголовный мир и городские власти. Теперь ему уже действительно нечего терять и нечего опасаться. При такой отчаянной решимости только Макс Пэйн способен пролить свет на все тайны, связанные с уничтожением его семьи, и главное, получить удовлетворение от мести, которой он так жаждет.


Изображение



ИзображениеБюджет: $35 000 000
ИзображениеМировая премьера:13 октября 2008


ИзображениеКачество: BDRip,1080p
ИзображениеКонтейнер: MKV
ИзображениеВидео: 1920x800, 9122 kbps, 23.976 fps
ИзображениеАудио: Русский DTS 5.1, 48 KHz, 768 kbps



Трейлер
Свернуть

Скриншоты
Изображение
Изображение
Изображение
Изображение


Свернуть

MediaInfo
Общее
Уникальный идентификатор : 211544522448643814793136983582476343831 (0x9F25FE3792FAE7989832FA0AF6141A17)
Полное имя : D:\Фильмы DivX\Max Payne.2008.BD.Rip.1080p.h264.Rus.mkv
Формат : Matroska
Версия формата : Version 1
Размер файла : 7,95 Гбайт
Продолжительность : 1 ч. 39 м.
Общий поток : 11,4 Мбит/сек
Дата кодирования : UTC 2009-01-20 09:35:32
Программа кодирования : mkvmerge v2.4.2 ('Oh My God') built on Jan 18 2009 17:30:28
Библиотека кодирования : libebml v0.7.7 + libmatroska v0.8.1

Видео
Идентификатор : 1
Формат : AVC
Формат/Информация : Advanced Video Codec
Профиль формата : High@L4.1
Параметр CABAC формата : Да
Параметр ReFrames формата : 5 кадров
Идентификатор кодека : V_MPEG4/ISO/AVC
Продолжительность : 1 ч. 39 м.
Битрейт : 9122 Кбит/сек
Ширина : 1920 пикселей
Высота : 800 пикселей
Соотношение сторон : 2,40:1
Режим частоты кадров : Постоянный
Частота кадров : 23,976 кадра/сек
Цветовое пространство : YUV
Субдискретизация насыщенности : 4:2:0
Битовая глубина : 8 бит
Тип развёртки : Прогрессивная
Бит/(Пиксели*Кадры) : 0.248
Размер потока : 6,21 Гбайт (78%)
Библиотека кодирования : x264 core 65 r1080M 56e9183
Настройки программы : cabac=1 / ref=5 / deblock=1:-3:-3 / analyse=0x3:0x113 / me=umh / subme=9 / psy_rd=1.0:0.0 / mixed_ref=1 / me_range=32 / chroma_me=1 / trellis=0 / 8x8dct=1 / cqm=2 / deadzone=6,4 / chroma_qp_offset=-2 / threads=6 / nr=0 / decimate=0 / mbaff=0 / bframes=3 / b_pyramid=1 / b_adapt=2 / b_bias=0 / direct=3 / wpredb=1 / keyint=240 / keyint_min=24 / scenecut=40(pre) / rc=2pass / bitrate=9122 / ratetol=1.0 / qcomp=0.60 / qpmin=10 / qpmax=51 / qpstep=4 / cplxblur=20.0 / qblur=0.5 / ip_ratio=1.40 / pb_ratio=1.30 / aq=1:1.00
Язык : English
Default : Да
Forced : Нет

Аудио #1
Идентификатор : 2
Формат : DTS
Формат/Информация : Digital Theater Systems
Идентификатор кодека : A_DTS
Продолжительность : 1 ч. 39 м.
Вид битрейта : Постоянный
Битрейт : 755 Кбит/сек
Каналы : 6 каналов
Расположение каналов : Front: L C R, Side: L R, LFE
Частота : 48,0 КГц
Битовая глубина : 24 бит
Метод сжатия : С потерями
Размер потока : 539 Мбайт (7%)
Заголовок : DTS 5.1 768 kbps
Язык : Russian
Default : Да
Forced : Нет

Аудио #2
Идентификатор : 3
Формат : DTS
Формат/Информация : Digital Theater Systems
Идентификатор кодека : A_DTS
Продолжительность : 1 ч. 39 м.
Вид битрейта : Постоянный
Битрейт : 1510 Кбит/сек
Каналы : 6 каналов
Расположение каналов : Front: L C R, Side: L R, LFE
Частота : 48,0 КГц
Битовая глубина : 24 бит
Метод сжатия : С потерями
Размер потока : 1,05 Гбайт (13%)
Заголовок : DTS 5.1 1536 kbps
Язык : English
Default : Нет
Forced : Нет

Текст #1
Идентификатор : 4
Формат : UTF-8
Идентификатор кодека : S_TEXT/UTF8
Идентификатор кодека/Информация : UTF-8 Plain Text
Язык : Russian
Default : Нет
Forced : Нет

Текст #2
Идентификатор : 5
Формат : UTF-8
Идентификатор кодека : S_TEXT/UTF8
Идентификатор кодека/Информация : UTF-8 Plain Text
Язык : English
Default : Нет
Forced : Нет


Свернуть
_________________
S.T.A.L.K.E.R.: Lost Alpha


Последний раз редактировалось R.G. Механики 2012-09-20 15:17, всего редактировалось 6 раз(а).
Не в сети
Профиль  
 Добавлено: 2012-09-19 14:18 (спустя 42 минуты)
Аватара пользователя
Стаж: 4 года 3 месяца
Возраст: 31
Сообщений: 200
Спасибок: 195
кул :dan_ser:
Не в сети
Профиль  
 Добавлено: 2012-09-19 14:48 (спустя 30 минут)
Аватара пользователя
Стаж: 5 лет 4 месяца
Возраст: 26
Сообщений: 1658
Спасибок: 45808
Лайков: 69
Качество просто отличное :men:
_________________
S.T.A.L.K.E.R.: Lost Alpha
Не в сети
Профиль  
 Добавлено: 2012-09-19 19:45 (спустя 4 часа)
Аватара пользователя
Стаж: 4 года 3 месяца
Возраст: 31
Сообщений: 200
Спасибок: 195

R.G. Механики:

Качество просто отличное :men:
Согласен качество :co_ol:
Не в сети
Профиль  
 Добавлено: 2012-09-20 09:18 (спустя 13 часов)
Стаж: 8 лет
Сообщений: 219
Лайков: 18
Лично по мне Уолберг ну никак не катит на Пэйна. Пэйн это перс со сломленной личностью - у него депресняк в глазах должен быть по жизни. А тут этакий здоровяк с откормленной ряхой - не айс
Не в сети
Профиль  
 Добавлено: 2012-09-20 12:33 (спустя 3 часа)
Аватара пользователя
Стаж: 7 лет 11 месяцев
Сообщений: 995
Лайков: 74
во-во, Пейна ну никак не Уолберг должен играть!! я бы Клайва Оуэна посоветовал, но он уже играл в подобном(
Не в сети
Профиль  
 Добавлено: 2012-09-20 14:17 (спустя 1 час 44 минуты)
Аватара пользователя
Стаж: 4 года 3 месяца
Возраст: 31
Сообщений: 200
Спасибок: 195

Evil_Knievel:

во-во, Пейна ну никак не Уолберг должен играть!! я бы Клайва Оуэна посоветовал, но он уже играл в подобном(
Я бы Сэма Лэйка посоветовал :co_ol:
Не в сети
Профиль  
 Добавлено: 2012-09-20 19:31 (спустя 5 часов)
Аватара пользователя
Стаж: 5 лет 4 месяца
Возраст: 26
Сообщений: 1658
Спасибок: 45808
Лайков: 69

BergoVic:

Evil_Knievel:

во-во, Пейна ну никак не Уолберг должен играть!! я бы Клайва Оуэна посоветовал, но он уже играл в подобном(
Я бы Сэма Лэйка посоветовал :co_ol:
:a_g_a:
_________________
S.T.A.L.K.E.R.: Lost Alpha
Не в сети
Профиль  
 Добавлено: 2012-09-22 12:36 (спустя 1 день 17 часов)
Аватара пользователя
Стаж: 4 года 3 месяца
Возраст: 31
Сообщений: 200
Спасибок: 195
А продолжение будет или нет :-[
Не в сети
Профиль  
 Добавлено: 2012-09-24 18:10 (спустя 2 дня 5 часов)
Стаж: 8 лет 7 месяцев
Сообщений: 59
Спасибок: 527

BergoVic:

Evil_Knievel:

во-во, Пейна ну никак не Уолберг должен играть!! я бы Клайва Оуэна посоветовал, но он уже играл в подобном(
Я бы Сэма Лэйка посоветовал :co_ol:
Джони Ноксвилл или Питер Краузе ИМХО.
Не в сети
Профиль  
Начать новую темуОтветить на тему  [ Сообщений: 10 ] 
Вы не можете начинать темы
Вы не можете отвечать на сообщения
Вы не можете редактировать свои сообщения
Вы не можете удалять свои сообщения