Правила форума

  • В этом разделе создание новых тем Запрещено.
  • Для создания новых тем пользуйтесь Корневым разделом DVD и HD фильмы.
Начать новую темуОтветить на тему  [ 1 сообщение ] 
Торрент файл
Размер: 10.19 GB • Зарегистрирован: 4 года 1 месяц • Статус: Проверено
Скачан: 26 раз • Желающих скачать: 0 • Поблагодарили: 7 раз
 Раздают: 0  |  0 KB/s  ]   Качают: 0  |  0 KB/s  ] 
 Полного источника не было 1 год 1 месяц 
Сообщения
 Добавлено: 2012-10-15 17:20
Top-releaser
Стаж: 4 года 11 месяцев
Сообщений: 311
Спасибок: 3511
Лайков: 2
Изображение

Макс Пэйн / Max Payne [Unrated]

Год выпуска: 2008
Страна: США, Канада
Жанр: боевик, триллер, драма, криминал
Продолжительность: 01:42:58
Перевод: Профессиональный (полное дублирование)
Русские субтитры: есть

Режиссер: Джон Мур (John Moore)

В ролях: Марк Уолберг, Мила Кунис, Бо Бриджес, Лудакрис, Крис О`Доннелл, Донал Лог, Амори Ноласко, Кейт Бертон, Ольга Куриленко, Ротафорд Грэй

Описание: Сотруднику Управления по борьбе с наркотиками не на что жаловаться. У него есть все: отличная работа, любящая жена и маленький ребенок. Словом, не жизнь, а американская мечта, которая однажды оборачивается самым страшным кошмаром: какой-то психопат убивает его семью.
Отныне у Макса только одна цель — отомстить. Но месть осложняется тем, что его несправедливо обвиняют в убийстве, и все, кому не лень, начинают на него охоту — Полицейское управление Нью-Йорка, уголовный мир и городские власти. Теперь ему уже действительно нечего терять и нечего опасаться. При такой отчаянной решимости только Макс Пэйн способен пролить свет на все тайны, связанные с уничтожением его семьи, и главное, получить удовлетворение от мести, которой он так жаждет.

Изображение
Качество: BDRip
Формат: MKV
Видео кодек: H.264
Аудио кодек: DTS
Видео: 1920x800, x264 DXVA, 23.976 fps, ~11904 kbps
Аудио 1: Русский DTS 5.1, 768 Kbps
Аудио 2: Английский DTS 5.1, 1536 Kbps
Субтитры 1: Русские (на непереведённые места)
Субтитры 2: Русские (только надписи и пр.)
Субтитры 3: Русские (полные)
Субтитры 4: Английские

Факты о фильме

* Сэм Лэйк, принявший участие в написании сценария, так же послужил прототипом для внешности Макса Пэйна в оригинальной игре.
* Комикс-вставки в оригинальной игре были вдохновлены графическим романом Фрэнка Миллера «Город Грехов».
* В оригинальной игре Макс Пэйн убивает 625 человек.
* На ранних стадиях проекта на роль Макса прочили Клайва Оуэна, который сыграл в чем-то схожего героя в «Пристрели их».
* Как и большинство занятых взрослых людей, Марк Уолберг почти не играет в компьютерные игры и не разбирается в них. Поэтому, когда к нему пришли с предложением сыграть в киноверсии игры, он ответил, что его карьера еще не настолько развалилась, чтобы сниматься в заведомой ерунде. Но затем его уговорили прочесть сценарий, и он настолько вдохновился идеей, что даже начал играть в Max Payne. Впрочем, по собственному признанию, надолго его не хватило - нашлись более важные дела. Поэтому в качестве консультанта он использовал своего молодого ассистента, который прошел игру целиком.
* Во всех трейлерах к фильму звучит инструментальная версия трека «If I Was Your Vampire» Мерилина Мэнсона.
* В начале фильма две сестры, Мона и Наташа, героини, соответственно, Милы Кунис и Ольги Куриленко, разговаривают между собой на русском. Американская киноактриса Мила Кунис (настоящее имя - Милена Марковна Кунис), с 1991 г. живущая в США, владеет русским, так как родилась в 1983 г. в Киеве.
* В фильме валькирии изображены двукрылыми человекоподобными существами. В скандинавской же мифологии валькирии летают на крылатых конях над полем битвы и сами крыльев не имеют.
* На предплечье персонажа фильма, наркомана, Оуэна Грина (Owen Green), упавшего из окна, можно разглядеть татуировку «USMC», что означает United States Marine Corps (Корпус морской пехоты США). В полном соответствии с сюжетом фильма это означает, что Грин также принимал участие в эксперименте «Валькирия».
* В игре Николь Хорн вкалывает Максу двойную дозу валькирина, но Макс выживает. В фильме Макс принимает двойную дозу наркотика и тоже остается жив. В игре говорится, что двойная доза смертельна.
* Фильм изображает судебных следователей Департамента полиции Нью-Йорка (NYPD) носящими куртки с надписью «CSI» (Crime Scene Investigation) на спине. На самом деле в Департаменте полиции Нью-Йорка отделение судебных следователей носит название «Crime Scene Unit», поэтому на их куртках должны быть надписи «CSU».


MadiaInfo
General
Unique ID : 179548672874270432851243472467021947982 (0x8713D109D6563366AA5F251832DA644E)
Complete name : G:\Раздачи\Фильмы\hqf-max.mkv
Format : Matroska
Format version : Version 1
File size : 10.2 GiB
Duration : 1h 42mn
Overall bit rate : 14.2 Mbps
Movie name : -=HANSMER=- (HQ-Films.ws)
Encoded date : UTC 2009-01-19 06:26:31
Writing application : mkvmerge v2.4.1 ('Use Me') built on Dec 5 2008 18:30:05
Writing library : libebml v0.7.7 + libmatroska v0.8.1

Video
ID : 1
Format : AVC
Format/Info : Advanced Video Codec
Format profile : High@L4.1
Format settings, CABAC : Yes
Format settings, ReFrames : 4 frames
Format settings, GOP : N=1
Codec ID : V_MPEG4/ISO/AVC
Duration : 1h 42mn
Bit rate : 11.6 Mbps
Width : 1 920 pixels
Height : 800 pixels
Display aspect ratio : 2.40:1
Frame rate mode : Constant
Frame rate : 23.976 fps
Color space : YUV
Chroma subsampling : 4:2:0
Bit depth : 8 bits
Scan type : Progressive
Bits/(Pixel*Frame) : 0.316
Stream size : 8.36 GiB (82%)
Title : Max.Payne.Unrated.2008.BluRay.1080p.DTS.x264.dxva-EuReKA
Writing library : x264 core 65 r1077M e46f648
Encoding settings : cabac=1 / ref=4 / deblock=1:-2:-2 / analyse=0x3:0x113 / me=umh / subme=7 / psy_rd=1.1:0.0 / mixed_ref=1 / me_range=24 / chroma_me=1 / trellis=2 / 8x8dct=1 / cqm=0 / deadzone=21,11 / chroma_qp_offset=-2 / threads=6 / nr=0 / decimate=0 / mbaff=0 / bframes=3 / b_pyramid=0 / b_adapt=1 / b_bias=0 / direct=3 / wpredb=1 / keyint=250 / keyint_min=25 / scenecut=40(pre) / rc=crf / crf=21.0 / qcomp=0.60 / qpmin=10 / qpmax=51 / qpstep=4 / vbv_maxrate=38000 / vbv_bufsize=30000 / ip_ratio=1.40 / pb_ratio=1.30 / aq=1:1.00
Language : English
Default : Yes
Forced : No

Audio #1
ID : 2
Format : DTS
Format/Info : Digital Theater Systems
Codec ID : A_DTS
Duration : 1h 42mn
Bit rate mode : Constant
Bit rate : 755 Kbps
Channel(s) : 6 channels
Channel positions : Front: L C R, Side: L R, LFE
Sampling rate : 48.0 KHz
Bit depth : 24 bits
Compression mode : Lossy
Stream size : 556 MiB (5%)
Language : Russian
Default : Yes
Forced : No

Audio #2
ID : 3
Format : DTS
Format/Info : Digital Theater Systems
Codec ID : A_DTS
Duration : 1h 42mn
Bit rate mode : Constant
Bit rate : 1 510 Kbps
Channel(s) : 6 channels
Channel positions : Front: L C R, Side: L R, LFE
Sampling rate : 48.0 KHz
Bit depth : 24 bits
Compression mode : Lossy
Stream size : 1.09 GiB (11%)
Language : English
Default : No
Forced : No

Text #1
ID : 4
Format : UTF-8
Codec ID : S_TEXT/UTF8
Codec ID/Info : UTF-8 Plain Text
Title : Unrated
Language : Russian
Default : Yes
Forced : No

Text #2
ID : 5
Format : UTF-8
Codec ID : S_TEXT/UTF8
Codec ID/Info : UTF-8 Plain Text
Title : Forced
Language : Russian
Default : No
Forced : No

Text #3
ID : 6
Format : UTF-8
Codec ID : S_TEXT/UTF8
Codec ID/Info : UTF-8 Plain Text
Title : Full
Language : Russian
Default : No
Forced : No

Text #4
ID : 7
Format : UTF-8
Codec ID : S_TEXT/UTF8
Codec ID/Info : UTF-8 Plain Text
Title : Full
Language : English
Default : No
Forced : No

Text #5
ID : 8
Format : UTF-8
Codec ID : S_TEXT/UTF8
Codec ID/Info : UTF-8 Plain Text
Title : non-English parts
Language : English
Default : No
Forced : No

Text #6
ID : 9
Format : UTF-8
Codec ID : S_TEXT/UTF8
Codec ID/Info : UTF-8 Plain Text
Language : Dutch
Default : No
Forced : No
Свернуть
Скриншоты
Изображение
Изображение
Изображение
Свернуть
Не в сети
Профиль  
Начать новую темуОтветить на тему  [ 1 сообщение ] 
Вы не можете начинать темы
Вы не можете отвечать на сообщения
Вы не можете редактировать свои сообщения
Вы не можете удалять свои сообщения