Правила форума

  • В этом разделе создание новых тем Запрещено.
  • Для создания новых тем пользуйтесь Корневым разделом DVD и HD фильмы.
Начать новую темуОтветить на тему  [ 1 сообщение ] 
Торрент файл
Размер: 8.17 GB • Зарегистрирован: 4 года • Статус: Проверено
Скачан: 74 раза • Желающих скачать: 0 • Поблагодарили: 23 раза
 Раздают: 0  |  0 KB/s  ]   Качают: 0  |  0 KB/s  ] 
 Полного источника не было 3 года 1 месяц 
Сообщения
 Добавлено: 2012-11-21 17:27
Модератор
Аватара пользователя
Стаж: 6 лет 10 месяцев
Возраст: 33
Сообщений: 5908
Спасибок: 61253
Лайков: 3540
Изображение

Максимальный срок
Maximum Conviction


Год выпуска: 2012
Страна: США
Жанр: боевик, триллер, приключения
Продолжительность: 01:34:39
Перевод: Профессиональный (многоголосый, закадровый) Лицензия
Режиссер: Киони Ваксман
Сценарий: Ричард Битти
Продюсер: Стив Остин, Филлип Б. Голдфайн, Стивен Сигал, Бинь Дань, Кевин Каша
Оператор: Натан Уилсон
Композитор: Майкл Ричард Плауман
В ролях: Стивен Сигал, Стив Остин, Майкл Паре, Алийа О’Брайен, Стеф Сонг, Брен Фостер, Шарлин Ройер, Кирби Морроу, Зак Сантьяго, Лауро Чартрэнд, Кристофер Гордон, Тич Грант

Мировая премьера: 25 октября 2012
Релиз на DVD: 28 ноября 2012, «Кармен Видео»
Релиз на Blu-ray: 28 ноября 2012, «Кармен Видео»
Описание: Бывшие сотрудники секретного оперативного подразделения Том Стил и его напарник Мэннинг получают задание - осуществить процедуру закрытия старой тюрьмы, для чего им поручают проконтролировать прибытие двух женщин-заключенных.
С первого взгляда, необременительное дело вскоре превращается в поле боевых действий - профессиональная группа наёмников проникает в тюрьму с целью - любой ценой отыскать вновь прибывших узниц. Выяснив, кем являются эти женщины на самом деле, оперативник Стил понимает, что он оказался втянут в нечто более опасное, чем он мог себе представить.


Изображение User Rating: 4.020 (84)
Изображение User Rating: 4.60 (1 135)
MPAA: R - Лицам до 17 лет обязательно присутствие взрослого
Раздача группы: Изображение
Изображение
Качество: BDRip, 1080p
Формат: MKV
Видео: 10.1 mb/s, 1920x1080
Аудио: Russian: AC3, 384 kb/s (6 ch) / English: DTS, 1510 kb/s (6 ch)
mediainfo
General
Unique ID : 246683233799132806025561471602322411197 (0xB9957671E1D06A2EB50CE3DA30698EBD)
Complete name : Maksimalnyj.srok.2012.P.BDRip.1080p.IRONCLUB.mkv
Format : Matroska
Format version : Version 2
File size : 8.17 GiB
Duration : 1h 37mn
Overall bit rate : 12.0 Mbps
Movie name : IRONCLUB
Encoded date : UTC 2012-11-21 12:17:00
Writing application : mkvmerge v4.9.1 ('Ich will') built on Jul 11 2011 23:53:15
Writing library : libebml v1.2.1 + libmatroska v1.1.1

Video
ID : 1
Format : AVC
Format/Info : Advanced Video Codec
Format profile : High@L4.1
Format settings, CABAC : Yes
Format settings, ReFrames : 4 frames
Codec ID : V_MPEG4/ISO/AVC
Duration : 1h 37mn
Bit rate : 10.1 Mbps
Width : 1 920 pixels
Height : 1 080 pixels
Display aspect ratio : 16:9
Frame rate : 23.976 fps
Color space : YUV
Chroma subsampling : 4:2:0
Bit depth : 8 bits
Scan type : Progressive
Bits/(Pixel*Frame) : 0.204
Stream size : 6.72 GiB (82%)
Title : Maximum.Conviction.2012.1080p.BluRay.DTS.x264-HDChina
Writing library : x264 core 125 r2208 d9d2288
Encoding settings : cabac=1 / ref=4 / deblock=1:-3:-3 / analyse=0x3:0x133 / me=umh / subme=10 / psy=1 / psy_rd=1.00:0.00 / mixed_ref=1 / me_range=48 / chroma_me=1 / trellis=2 / 8x8dct=1 / cqm=0 / deadzone=21,11 / fast_pskip=1 / chroma_qp_offset=-2 / threads=12 / lookahead_threads=2 / sliced_threads=0 / nr=0 / decimate=0 / interlaced=0 / bluray_compat=0 / constrained_intra=0 / bframes=7 / b_pyramid=2 / b_adapt=2 / b_bias=0 / direct=3 / weightb=1 / open_gop=0 / weightp=2 / keyint=250 / keyint_min=23 / scenecut=40 / intra_refresh=0 / rc_lookahead=80 / rc=2pass / mbtree=1 / bitrate=10135 / ratetol=1.0 / qcomp=0.60 / qpmin=0 / qpmax=69 / qpstep=4 / cplxblur=20.0 / qblur=0.5 / vbv_maxrate=30000 / vbv_bufsize=30000 / nal_hrd=none / ip_ratio=1.50 / aq=1:1.00
Language : English
Default : Yes
Forced : Yes

Audio #1
ID : 2
Format : AC-3
Format/Info : Audio Coding 3
Mode extension : CM (complete main)
Format settings, Endianness : Big
Codec ID : A_AC3
Duration : 1h 37mn
Bit rate mode : Constant
Bit rate : 384 Kbps
Channel(s) : 6 channels
Channel positions : Front: L C R, Side: L R, LFE
Sampling rate : 48.0 KHz
Bit depth : 16 bits
Compression mode : Lossy
Stream size : 269 MiB (3%)
Title : DD 5.1 @ 384 kbps - MVO, R5
Language : Russian
Default : Yes
Forced : Yes

Audio #2
ID : 3
Format : DTS
Format/Info : Digital Theater Systems
Codec ID : A_DTS
Duration : 1h 37mn
Bit rate mode : Constant
Bit rate : 1 510 Kbps
Channel(s) : 6 channels
Channel positions : Front: L C R, Side: L R, LFE
Sampling rate : 48.0 KHz
Bit depth : 16 bits
Compression mode : Lossy
Stream size : 1.03 GiB (13%)
Title : DTS 5.1 @ 1536 kbps
Language : English
Default : No
Forced : No

Text #1
ID : 4
Format : UTF-8
Codec ID : S_TEXT/UTF8
Codec ID/Info : UTF-8 Plain Text
Language : Russian
Default : No
Forced : No

Text #2
ID : 5
Format : UTF-8
Codec ID : S_TEXT/UTF8
Codec ID/Info : UTF-8 Plain Text
Language : English
Default : No
Forced : No
Свернуть
Скриншоты

Изображение
Изображение
Изображение
Изображение
Свернуть
_________________
ИзображениеИзображение Изображение
Изображение
 tany1984 и di-ys1 нравится это.
Не в сети
Профиль  
Начать новую темуОтветить на тему  [ 1 сообщение ] 
Вы не можете начинать темы
Вы не можете отвечать на сообщения
Вы не можете редактировать свои сообщения
Вы не можете удалять свои сообщения