Правила форума

  • В этом разделе создание новых тем Запрещено.
  • Для создания новых тем пользуйтесь Корневым разделом DVD и HD фильмы.
Начать новую темуОтветить на тему  [ Сообщений: 9 ] 
Торрент файл
Размер: 7.97 GB • Зарегистрирован: 5 лет • Статус: Проверено
Скачан: 733 раза • Желающих скачать: 0 • Поблагодарили: 113 раз
 Раздают: 0  |  0 KB/s  ]   Качают: 0  |  0 KB/s  ] 
 Полного источника не было 2 часа 14 минут 
Сообщения
 Добавлено: 2011-11-16 16:35
Руководитель релиз-группы
Аватара пользователя
Стаж: 8 лет 6 месяцев
Возраст: 25
Сообщений: 7578
Спасибок: 51914
Лайков: 14
Мальчишник 2: Из Вегаса в Бангкок

The Hangover Part II


Изображение


Год выпуска: 2011
Страна: США, Warner Bros. Pictures
Жанр: Комедия
Продолжительность: 01:41:48
Перевод: Профессиональный (полное дублирование)
Режиссер: Тодд Филлипс
В ролях: Брэдли Купер, Эд Хелмс, Зак Галифианакис, Майк Тайсон, Джастин Барта, Кен Жонг, Пол Джаматти, Джефри Тэмбор Мэйсон С. Ли, Джеми Чунг
Описание: В продолжении культовой комедии «Мальчишник в Вегасе» четверо друзей Фил, Стю, Алан и Даг отправляются в экзотический Тайланд на свадьбу Стю. После безумного мальчишника в Лас-Вегасе, они решают не испытывать судьбу во второй раз, а потому в Бангкоке планируют очень спокойное и безопасное празднество. Но как обычно, все идет совсем не по плану… Что происходит в Вегасе, остается в Вегасе. Но то, что происходит в Бангкоке — это просто настоящее безумие!
Качество: BDRip 1080p
Формат: MKV
Видео: 1920x800 (2.35:1), H.264, 23.976 fps, 9246 kb/s, 0.274 bit/pixel
Аудио:
Аудио Rus: AC3 48kHz 6ch 448Kbps
Аудио Eng: DTS 48kHz 6ch 1510Kbps
"MediaInfo"

Общее
Полное имя : Malchishnik.2.iz.vegasa.v.bankok.2011.BDRip.1080p.mkv
Формат : Matroska
Версия формата : Version 1
Размер файла : 7,97 Гбайт
Продолжительность : 1 ч. 41 м.
Общий поток : 11,2 Мбит/сек
Дата кодирования : UTC 2011-11-16 11:24:13
Программа кодирования : mkvmerge v2.4.1 ('Use Me') built on Dec 5 2008 18:30:05
Библиотека кодирования : libebml v0.7.7 + libmatroska v0.8.1

Видео
Идентификатор : 1
Формат : AVC
Формат/Информация : Advanced Video Codec
Профиль формата : High@L4.1
Параметр CABAC формата : Да
Параметр ReFrames формата : 5 кадров
Идентификатор кодека : V_MPEG4/ISO/AVC
Продолжительность : 1 ч. 41 м.
Битрейт : 9246 Кбит/сек
Ширина : 1920 пикселей
Высота : 800 пикселей
Соотношение сторон : 2,40:1
Частота кадров : 23,976 кадра/сек
Цветовое пространство : YUV
Субдискретизация насыщенности : 4:2:0
Битовая глубина : 8 бит
Тип развёртки : Прогрессивная
Бит/(Пиксели*Кадры) : 0.251
Размер потока : 6,42 Гбайт (81%)
Библиотека кодирования : x264 core 119 r2106 07efeb4
Настройки программы : cabac=1 / ref=5 / deblock=1:0:0 / analyse=0x3:0x133 / me=umh / subme=8 / psy=1 / psy_rd=1.00:0.00 / mixed_ref=1 / me_range=16 / chroma_me=1 / trellis=1 / 8x8dct=1 / cqm=0 / deadzone=21,11 / fast_pskip=0 / chroma_qp_offset=-2 / threads=18 / sliced_threads=0 / nr=0 / decimate=1 / interlaced=0 / bluray_compat=0 / constrained_intra=0 / bframes=3 / b_pyramid=2 / b_adapt=1 / b_bias=0 / direct=1 / weightb=1 / open_gop=0 / weightp=2 / keyint=240 / keyint_min=24 / scenecut=40 / intra_refresh=0 / rc_lookahead=40 / rc=2pass / mbtree=1 / bitrate=9246 / ratetol=1.0 / qcomp=0.60 / qpmin=0 / qpmax=69 / qpstep=4 / cplxblur=20.0 / qblur=0.5 / ip_ratio=1.40 / aq=1:1.00
Язык : English

Аудио #1
Идентификатор : 2
Формат : AC-3
Формат/Информация : Audio Coding 3
Расширение режима : CM (complete main)
Идентификатор кодека : A_AC3
Продолжительность : 1 ч. 41 м.
Вид битрейта : Постоянный
Битрейт : 448 Кбит/сек
Каналы : 6 каналов
Расположение каналов : Front: L C R, Side: L R, LFE
Частота : 48,0 КГц
Битовая глубина : 16 бит
Метод сжатия : С потерями
Размер потока : 326 Мбайт (4%)
Язык : Russian

Аудио #2
Идентификатор : 3
Формат : DTS
Формат/Информация : Digital Theater Systems
Идентификатор кодека : A_DTS
Продолжительность : 1 ч. 41 м.
Вид битрейта : Постоянный
Битрейт : 1510 Кбит/сек
Каналы : 6 каналов
Расположение каналов : Front: L C R, Side: L R, LFE
Частота : 48,0 КГц
Битовая глубина : 24 бит
Метод сжатия : С потерями
Задержка видео : 11 мс.
Размер потока : 1,07 Гбайт (13%)
Заголовок : english
Язык : English
Свернуть
"Скриншоты"

Изображение
Изображение
Изображение
Свернуть
Не в сети
Профиль  
 Добавлено: 2011-11-16 18:20 (спустя 1 час 44 минуты)
Аватара пользователя
Стаж: 8 лет 4 месяца
Возраст: 26
Сообщений: 83
дубляж чистый?
Не в сети
Профиль  
 Добавлено: 2011-11-16 18:25 (спустя 5 минут)
Руководитель релиз-группы
Аватара пользователя
Стаж: 8 лет 6 месяцев
Возраст: 25
Сообщений: 7578
Спасибок: 51914
Лайков: 14

KranK:

дубляж чистый?
Да...
Не в сети
Профиль  
 Добавлено: 2011-11-17 18:04 (спустя 23 часа)
Аватара пользователя
Стаж: 7 лет 11 месяцев
Сообщений: 786
Спасибок: 25
Лайков: 9
;) спасибо , быстро интересно скачает
:du_ma_et:
Не в сети
Профиль  
 Добавлено: 2011-11-17 19:29 (спустя 1 час 24 минуты)
Аватара пользователя
Стаж: 7 лет 2 месяца
Сообщений: 119
Лайков: 2
Ого, наконец-то, дождался...спс за релиз ;)
Не в сети
Профиль  
 Добавлено: 2011-11-20 00:40 (спустя 2 дня 5 часов)
Кинокомментатор
Аватара пользователя
Стаж: 9 лет 1 месяц
Сообщений: 1332
Лайков: 54
зачёт кино) дунуть гашу) положить рядом девушку) и смотреть!) зачёёёт!) смеялся громко:)
всё таже трешака) всё то же веселье) хуже не стало!) заччёёёт!) 9/10
_________________
Я ВКонтакте
Не в сети
Профиль  
 Добавлено: 2011-11-20 10:30 (спустя 9 часов)
Аватара пользователя
Стаж: 7 лет 10 месяцев
Сообщений: 187
Лайков: 9
Помойка!!! Ну если бы мне было 14 лет я бы не пожалел о просмотре...
Не в сети
Профиль  
 Добавлено: 2011-11-26 12:42 (спустя 6 дней)
Аватара пользователя
Стаж: 7 лет 4 месяца
Сообщений: 4
Спасибок: 8
Чуваки мы в Тае по Банкоку едем и этот фильмец зырем, вот ржач стоял на весь автобус и полное ощущени реальности, фильм - оторва!!!
Не в сети
Профиль  
 Добавлено: 2011-11-26 16:53 (спустя 4 часа)
Аватара пользователя
Стаж: 8 лет 11 месяцев
Возраст: 27
Сообщений: 721
Спасибок: 5528
Лайков: 1
норм фильм, не хуже первой части :)
_________________
Изображение
Не в сети
Профиль  
Начать новую темуОтветить на тему  [ Сообщений: 9 ] 
Вы не можете начинать темы
Вы не можете отвечать на сообщения
Вы не можете редактировать свои сообщения
Вы не можете удалять свои сообщения