Правила форума

  • В этом разделе создание новых тем Запрещено.
  • Для создания новых тем пользуйтесь Корневым разделом DVD и HD фильмы.
Начать новую темуОтветить на тему  [ Сообщений: 2 ] 
Торрент файл
Размер: 12.89 GB • Зарегистрирован: 3 года 2 месяца • Статус: Проверено
Скачан: 114 раз • Желающих скачать: 0 • Поблагодарили: 50 раз
 Раздают: 0  |  0 KB/s  ]   Качают: 0  |  0 KB/s  ] 
 Полного источника не было 11 часов 
Сообщения
 Добавлено: 2013-09-28 23:05
Руководитель релиз-группы
Аватара пользователя
Стаж: 9 лет 1 месяц
Возраст: 28
Сообщений: 4244
Спасибок: 31995
Лайков: 32
Изображение
Мальчишник: Часть III
The Hangover Part III


«Вот это конец.»


Год выпуска | 2013
Страна | США
Жанр | комедия
Продолжительность | 01:40:09
Перевод | Профессиональный (полное дублирование) /русский/ ∙ Профессиональный (полное дублирование) /украинский/ ∙ Авторский (Пучков «Goblin» Дмитрий) ∙ Оригинальный ∙ Субтитры (русские, украинские, английские)
Режиссер | Тодд Филлипс
Сценарий | Тодд Филлипс ∙ Крэйг Мазин ∙ Джон Лукас ∙ Скотт Мур
Продюсер | Дэниэл Голдберг ∙ Тодд Филлипс ∙ Скотт Будник ∙ Джозеф Гарнер ∙ Крис Ловенштейн
Оператор | Лоуренс Шер
Композитор | Кристоф Бек

В ролях | Брэдли Купер (Phil) ∙ Эд Хелмс (Stu) ∙ Зак Галифианакис (Alan) ∙ Кен Жонг (Mr. Chow) ∙ Джон Гудман (Marshall) ∙ Джастин Барта (Doug) ∙ Джеффри Тэмбор (Sid) ∙ Мелисса МакКарти (Cassie) ∙ Хэзер Грэм (Jade) ∙ Джейми Чунг (Lauren) ∙ Майк Эппс (Black Doug) ∙ Саша Баррези (Tracy) и др.
Дублёры | Пётр Иващенко (Phil) ∙ Борис Шувалов (Stu) ∙ Вячеслав Гришечкин (Alan) ∙ Диомид Виноградов (Mr. Chow) ∙ Александр Новиков (Marshall) ∙ Сергей Смирнов (Doug) ∙ Петр Тобилевич (Sid) ∙ Анастасия Лапина (Cassie) ∙ Татьяна Шитова (Jade) ∙ Вероника Саркисова (Lauren) ∙ Дмитрий Курта (Black Doug) ∙ Инна Королёва (Linda) и др.
Описание | В этот раз никакой свадьбы. Никакого мальчишника. Казалось бы, что могло пойти не так? Но когда Волчья стая оказывается на дороге, все ставки снимаются.
Релиз | ИзображениеРаздача | Изображение

kinopoisk.ru | 6.515 (33 583)
Бюджет | $103 000 000
Сборы в США | $112 200 072
Сборы в России | $17 489 783
Сборы в мире | $351 000 072
Мировая премьера | 20 мая 2013
Релиз на DVD | 3 октября 2013 ∙ CP Дистрибуция»
Релиз на Blu-Ray | 3 октября 2013 ∙ CP Дистрибуция»
Знаете ли Вы, что...
  • Шон Пенн и Роберт Дауни-мл. рассматривались на роль, которая в итоге досталась Джону Гудману.
  • Ближе к концу фильма, когда «волчья стая» возвращается к микроавтобусу, на заднем плане виден рекламный щит с Эдди (владелец свадебной часовни из первого фильма).
  • В ломбарде Кэсси откусывает кусок леденца и жует его. В следующем кадре леденец выглядит нетронутым.
  • Ближе к концу фильма, после того как стреляют по багажнику лимузина, герои садятся в него и едут дальше, но при этом на багажнике не видно пулевых отверстий.
Свернуть

Качество | BDRip 1080p
Контейнер | Matroska
Видео | AVC ∙ 1920x800 (2.40:1) ∙ 15000 kbps ∙ 23.976 fps ∙ 0.407 bit/pixel
Аудио #1 | AC3 ∙ 640 kbps ∙ CBR ∙ 6 channels ∙ 16 bit /DUB/
Аудио #2 | AC3 ∙ 640 kbps ∙ CBR ∙ 6 channels ∙ 16 bit /UKR/
Аудио #3 | AC3 ∙ 640 kbps ∙ CBR ∙ 6 channels ∙ 16 bit /AVO/
Аудио #4 | DTS ∙ 1510 kbps ∙ CBR ∙ 6 channels ∙ 24 bit /ENG/

MediaInfo
General
Unique ID : 196308006981219860874352362164083097565 (0x93AF8C016DED7A4980C0FA0A165DFFDD)
Complete name : I:\films\The.Hangover.Part.III.2013.BDRip.1080p.mkv
Format : Matroska
File size : 12.9 GiB
Duration : 1h 40mn
Overall bit rate : 18.4 Mbps
Movie name : The Hangover Part III (2013) - Release for HDCLUB
Encoded date : UTC 2013-09-28 08:37:45
Writing application : mkvmerge v3.4.0 ('Rapunzel') built on May 15 2010 09:38:20
Writing library : libebml v0.8.0 + libmatroska v0.9.0
Cover : Yes / Yes

Video
ID : 1
Format : AVC
Format/Info : Advanced Video Codec
Format profile : High@L4.1
Format settings, CABAC : Yes
Format settings, ReFrames : 5 frames
Codec ID : V_MPEG4/ISO/AVC
Duration : 1h 40mn
Bit rate : 15.0 Mbps
Width : 1 920 pixels
Height : 800 pixels
Display aspect ratio : 2.40:1
Frame rate : 23.976 fps
Color space : YUV
Chroma subsampling : 4:2:0
Bit depth : 8 bits
Scan type : Progressive
Bits/(Pixel*Frame) : 0.407
Stream size : 10.2 GiB (79%)
Title : The Hangover Part III (2013) - Release for HDCLUB
Writing library : x264 core 138 r2359+704+48 3f879a0 tMod [8-bit@4:2:0 X86_64]
Encoding settings : cabac=1 / ref=5 / deblock=1:-3:-3 / analyse=0x3:0x113 / me=umh / subme=11 / psy=1 / fade_compensate=0.00 / psy_rd=0.95:0.00 / mixed_ref=1 / me_range=48 / chroma_me=1 / trellis=2 / 8x8dct=1 / cqm=0 / deadzone=21,11 / fast_pskip=0 / chroma_qp_offset=-2 / threads=12 / lookahead_threads=3 / sliced_threads=0 / nr=0 / decimate=1 / interlaced=0 / bluray_compat=0 / constrained_intra=0 / fgo=0 / bframes=10 / b_pyramid=2 / b_adapt=2 / b_bias=0 / direct=3 / weightb=1 / open_gop=0 / weightp=2 / keyint=250 / keyint_min=23 / scenecut=40 / intra_refresh=0 / rc_lookahead=60 / rc=2pass / mbtree=0 / bitrate=15000 / ratetol=1.0 / qcomp=0.70 / qpmin=0:0:0 / qpmax=69:69:69 / qpstep=4 / cplxblur=20.0 / qblur=0.5 / vbv_maxrate=62500 / vbv_bufsize=78125 / nal_hrd=none / ip_ratio=1.40 / pb_ratio=1.30 / aq=4:0.80 / aq-sensitivity=11.00 / aq-factor=1.00:1.00:1.00 / aq2=1:0.60 / aq2-sensitivity=9.00 / aq2-factor=1.00:1.00:1.00 / aq3=1:[0.60:0.60]:[0.60:0.60]:[0.60:0.60]:[0.60:0.60] / aq3-sensitivity=10.00 / aq3-factor=[1.00:1.00]:[1.00:1.00]:[1.00:1.00] / aq3-boundary=192:64:24
Language : English
Color primaries : BT.709-5, BT.1361, IEC 61966-2-4, SMPTE RP177
Transfer characteristics : BT.709-5, BT.1361
Matrix coefficients : BT.709-5, BT.1361, IEC 61966-2-4 709, SMPTE RP177

Audio #1
ID : 2
Format : AC-3
Format/Info : Audio Coding 3
Mode extension : CM (complete main)
Codec ID : A_AC3
Duration : 1h 40mn
Bit rate mode : Constant
Bit rate : 640 Kbps
Channel(s) : 6 channels
Channel positions : Front: L C R, Side: L R, LFE
Sampling rate : 48.0 KHz
Bit depth : 16 bits
Compression mode : Lossy
Stream size : 458 MiB (3%)
Title : AC3 5.1 @ 640 kbps - DUB, Blu-ray CEE
Language : Russian

Audio #2
ID : 3
Format : AC-3
Format/Info : Audio Coding 3
Mode extension : CM (complete main)
Codec ID : A_AC3
Duration : 1h 40mn
Bit rate mode : Constant
Bit rate : 640 Kbps
Channel(s) : 6 channels
Channel positions : Front: L C R, Side: L R, LFE
Sampling rate : 48.0 KHz
Bit depth : 16 bits
Compression mode : Lossy
Stream size : 458 MiB (3%)
Title : AC3 5.1 @ 640 kbps - DUB, Blu-ray CEE
Language : Ukrainian

Audio #3
ID : 4
Format : AC-3
Format/Info : Audio Coding 3
Mode extension : CM (complete main)
Codec ID : A_AC3
Duration : 1h 40mn
Bit rate mode : Constant
Bit rate : 640 Kbps
Channel(s) : 6 channels
Channel positions : Front: L C R, Side: L R, LFE
Sampling rate : 48.0 KHz
Bit depth : 16 bits
Compression mode : Lossy
Stream size : 458 MiB (3%)
Title : AC3 5.1 @ 640 kbps - AVO Goblin, Blu-ray CEE
Language : Russian

Audio #4
ID : 5
Format : DTS
Format/Info : Digital Theater Systems
Codec ID : A_DTS
Duration : 1h 40mn
Bit rate mode : Constant
Bit rate : 1 510 Kbps
Channel(s) : 6 channels
Channel positions : Front: L C R, Side: L R, LFE
Sampling rate : 48.0 KHz
Bit depth : 24 bits
Compression mode : Lossy
Delay relative to video : 11ms
Stream size : 1.06 GiB (8%)
Title : DTS 5.1 @ 1536 kbps
Language : English

Text #1
ID : 6
Format : UTF-8
Codec ID : S_TEXT/UTF8
Codec ID/Info : UTF-8 Plain Text
Title : Forced, iTunes
Language : Russian

Text #2
ID : 7
Format : UTF-8
Codec ID : S_TEXT/UTF8
Codec ID/Info : UTF-8 Plain Text
Title : iTunes
Language : Russian

Text #3
ID : 8
Format : UTF-8
Codec ID : S_TEXT/UTF8
Codec ID/Info : UTF-8 Plain Text
Title : Forced, iTunes
Language : Ukrainian

Text #4
ID : 9
Format : UTF-8
Codec ID : S_TEXT/UTF8
Codec ID/Info : UTF-8 Plain Text
Title : iTunes
Language : Ukrainian

Text #5
ID : 10
Format : UTF-8
Codec ID : S_TEXT/UTF8
Codec ID/Info : UTF-8 Plain Text
Language : English

Text #6
ID : 11
Format : UTF-8
Codec ID : S_TEXT/UTF8
Codec ID/Info : UTF-8 Plain Text
Title : SDH
Language : English

Text #7
ID : 12
Format : UTF-8
Codec ID : S_TEXT/UTF8
Codec ID/Info : UTF-8 Plain Text
Title : SDH-COLORED
Language : English

Menu
00:00:00.000 : en:Chapter 1
00:10:49.982 : en:Chapter 2
00:17:47.691 : en:Chapter 3
00:26:16.992 : en:Chapter 4
00:37:56.857 : en:Chapter 5
00:47:01.735 : en:Chapter 6
00:55:08.680 : en:Chapter 7
01:06:09.632 : en:Chapter 8
01:19:41.735 : en:Chapter 9
01:27:44.842 : en:Chapter 10
01:34:53.020 : en:Chapter 11
Свернуть

Скриншоты

Изображение

Изображение

Изображение
Свернуть
_________________
«you failed because you had the wrong dream...»
Не в сети
Профиль  
 Добавлено: 2014-01-07 22:55 (спустя 3 месяца 8 дней)
Стаж: 7 лет 1 месяц
Сообщений: 3
:a_g_a: Спасибо!

Добавлено спустя 0 секунд:
:a_g_a: Спасибо!
Не в сети
Профиль  
Начать новую темуОтветить на тему  [ Сообщений: 2 ] 
Вы не можете начинать темы
Вы не можете отвечать на сообщения
Вы не можете редактировать свои сообщения
Вы не можете удалять свои сообщения