Правила форума

  • В этом разделе создание новых тем Запрещено.
  • Для создания новых тем пользуйтесь Корневым разделом DVD и HD фильмы.
Начать новую темуОтветить на тему  [ Сообщений: 10 ] 
Торрент файл
Размер: 9.52 GB • Зарегистрирован: 3 года 2 месяца • Статус: Проверено
Скачан: 528 раз • Желающих скачать: 0 • Поблагодарили: 127 раз
 Раздают: 0  |  0 KB/s  ]   Качают: 0  |  0 KB/s  ] 
 Полного источника не было 57 минут 
Сообщения
 Добавлено: 2013-09-20 08:48
Top-releaser
Аватара пользователя
Стаж: 8 лет 9 месяцев
Сообщений: 479
Спасибок: 20187
Лайков: 16
Изображение

Мальчишник: Часть III

The Hangover Part III


«Вот это конец»

Год выпуска: 2013
Страна: Изображение США; Green Hat Films, Legendary Pictures
Жанр: Комедия
Продолжительность: 01:40:09
Перевод: Профессиональный (дублированный), Оригинал
Субтитры: Русские, украинские, английские, французские, испанские

Режиссёр: Тодд Филлипс / Todd Phillips

В ролях: Брэдли Купер, Мелисса МакКарти, Джон Гудмен, Джейми Чунг, Зак Галифианакис, Джастин Барта, Хезер Грэм, Эд Хелмс, Кен Жонг, Александра Баррези

Описание: В этот раз никакой свадьбы. Никакого мальчишника. Казалось бы, что могло пойти не так? Но когда Волчья стая оказывается на дороге, все ставки снимаются.


Качество: BDRip 1080p
Формат: MKV

Видео: AVC at 11,1 Мбит/сек, 1920 x 800 (2.400) at 23.976 fps

Аудио 1: AC-3 at 384 Кбит/сек, 6 каналов, 48,0 КГц [Дубляж]
Аудио 2: AC-3 at 384 Кбит/сек, 2 каналов, 48,0 КГц [Украинский]
Аудио 3: DTS at 1509 Кбит/сек, 6 каналов, 48,0 КГц [Оригинал]
Раздача: Изображение

Изображение
MediaInfo

Общее
Уникальный идентификатор : 240112944574222377814931207734090824136 (0xB4A4122CFE60730890F1A9F1022C79C8)
Полное имя : C:\Users\Домашний\Desktop\Malchishnik.3.2013.BDRip.1080p.[nntt].mkv
Формат : Matroska
Версия формата : Version 2
Размер файла : 9,52 Гбайт
Продолжительность : 1 ч. 40 м.
Общий поток : 13,6 Мбит/сек
Дата кодирования : UTC 2013-09-20 00:20:19
Программа кодирования : mkvmerge v5.8.0 ('No Sleep / Pillow') built on Sep 2 2012 15:37:04
Библиотека кодирования : libebml v1.2.3 + libmatroska v1.3.0

Видео
Идентификатор : 1
Формат : AVC
Формат/Информация : Advanced Video Codec
Профиль формата : High@L4.1
Параметр CABAC формата : Да
Параметр ReFrames формата : 5 кадров
Идентификатор кодека : V_MPEG4/ISO/AVC
Продолжительность : 1 ч. 40 м.
Битрейт : 11,1 Мбит/сек
Ширина : 1920 пикселей
Высота : 800 пикселей
Соотношение сторон : 2,40:1
Режим частоты кадров : Постоянный
Частота кадров : 23,976 кадра/сек
Цветовое пространство : YUV
Субдискретизация насыщенности : 4:2:0
Битовая глубина : 8 бит
Тип развёртки : Прогрессивная
Бит/(Пиксели*Кадры) : 0.300
Размер потока : 7,74 Гбайт (81%)
Язык : English
Default : Да
Forced : Нет

Аудио #1
Идентификатор : 2
Формат : AC-3
Формат/Информация : Audio Coding 3
Расширение режима : CM (complete main)
Параметр Endianness формата : Big
Идентификатор кодека : A_AC3
Продолжительность : 1 ч. 40 м.
Вид битрейта : Постоянный
Битрейт : 384 Кбит/сек
Каналы : 6 каналов
Расположение каналов : Front: L C R, Side: L R, LFE
Частота : 48,0 КГц
Битовая глубина : 16 бит
Метод сжатия : С потерями
Размер потока : 275 Мбайт (3%)
Язык : Russian
Default : Да
Forced : Нет

Аудио #2
Идентификатор : 3
Формат : AC-3
Формат/Информация : Audio Coding 3
Расширение режима : CM (complete main)
Параметр Endianness формата : Big
Идентификатор кодека : A_AC3
Продолжительность : 1 ч. 40 м.
Вид битрейта : Постоянный
Битрейт : 384 Кбит/сек
Каналы : 2 канала
Расположение каналов : Front: L R
Частота : 48,0 КГц
Битовая глубина : 16 бит
Метод сжатия : С потерями
Задержка видео : 963 мс.
Размер потока : 275 Мбайт (3%)
Язык : Ukrainian
Default : Нет
Forced : Нет

Аудио #3
Идентификатор : 4
Формат : DTS
Формат/Информация : Digital Theater Systems
Режим : 16
Параметр Endianness формата : Big
Идентификатор кодека : A_DTS
Продолжительность : 1 ч. 40 м.
Вид битрейта : Постоянный
Битрейт : 1509 Кбит/сек
Каналы : 6 каналов
Расположение каналов : Front: L C R, Side: L R, LFE
Частота : 48,0 КГц
Битовая глубина : 24 бит
Метод сжатия : С потерями
Размер потока : 1,06 Гбайт (11%)
Язык : English
Default : Нет
Forced : Нет

Текст #1
Идентификатор : 5
Формат : UTF-8
Идентификатор кодека : S_TEXT/UTF8
Идентификатор кодека/Информация : UTF-8 Plain Text
Язык : Russian
Default : Нет
Forced : Нет

Текст #2
Идентификатор : 6
Формат : UTF-8
Идентификатор кодека : S_TEXT/UTF8
Идентификатор кодека/Информация : UTF-8 Plain Text
Язык : Russian
Default : Нет
Forced : Нет

Текст #3
Идентификатор : 7
Формат : UTF-8
Идентификатор кодека : S_TEXT/UTF8
Идентификатор кодека/Информация : UTF-8 Plain Text
Язык : Ukrainian
Default : Нет
Forced : Нет

Текст #4
Идентификатор : 8
Формат : UTF-8
Идентификатор кодека : S_TEXT/UTF8
Идентификатор кодека/Информация : UTF-8 Plain Text
Язык : Ukrainian
Default : Нет
Forced : Нет

Текст #5
Идентификатор : 9
Формат : PGS
Режим смешивания : zlib
Идентификатор кодека : S_HDMV/PGS
Идентификатор кодека/Информация : The same subtitle format used on BDs/HD-DVDs
Язык : English
Default : Нет
Forced : Нет

Текст #6
Идентификатор : 10
Формат : PGS
Режим смешивания : zlib
Идентификатор кодека : S_HDMV/PGS
Идентификатор кодека/Информация : The same subtitle format used on BDs/HD-DVDs
Язык : French
Default : Нет
Forced : Нет

Текст #7
Идентификатор : 11
Формат : PGS
Режим смешивания : zlib
Идентификатор кодека : S_HDMV/PGS
Идентификатор кодека/Информация : The same subtitle format used on BDs/HD-DVDs
Язык : Spanish
Default : Нет
Forced : Нет

Меню
00:00:00.000 : en:00:00:00.000
00:10:49.983 : en:00:10:49.983
00:17:47.692 : en:00:17:47.692
00:26:16.992 : en:00:26:16.992
00:37:56.858 : en:00:37:56.858
00:47:01.736 : en:00:47:01.736
00:55:08.680 : en:00:55:08.680
01:06:09.632 : en:01:06:09.632
01:19:41.735 : en:01:19:41.735
01:27:44.843 : en:01:27:44.843
01:34:53.021 : en:01:34:53.021


Свернуть
"Знаете ли Вы, что..."

• Шон Пенн и Роберт Дауни-мл. рассматривались на роль, которая в итоге досталась Джону Гудману.
• Ближе к концу фильма, когда «волчья стая» возвращается к микроавтобусу, на заднем плане виден рекламный щит с Эдди (владелец свадебной часовни из первого фильма).
• В ломбарде Кэсси откусывает кусок леденца и жует его. В следующем кадре леденец выглядит нетронутым.
• Во дворце Цезаря Алан берет стопку полотенец. В следующей сцене на крыше вместо полотенец герои используют связанные вместе простыни, чтобы спуститься вниз.
• Ближе к концу фильма, после того как стреляют по багажнику лимузина, герои садятся в него и едут дальше, но при этом на багажнике не видно пулевых отверстий.


Свернуть
Скриншоты

Изображение
Изображение
Изображение
Изображение
Изображение
Изображение
Свернуть
_________________
Изображение
Изображение
Не в сети
Профиль  
 Добавлено: 2013-09-20 09:29 (спустя 41 минута)
Аватара пользователя
Стаж: 6 лет 3 месяца
Возраст: 23
Сообщений: 352
Лайков: 4
а есть ли в озвучке гоблина? но с качеством 1080?
_________________

Изображение
Не в сети
Профиль  
 Добавлено: 2013-09-20 09:30 (спустя 34 секунды)
Аватара пользователя
Стаж: 7 лет 8 месяцев
Возраст: 24
Сообщений: 299
Спасибок: 71
Лайков: 2
Наконец-то! Ура!
Не в сети
Профиль  
 Добавлено: 2013-09-20 09:35 (спустя 5 минут)
Top-releaser
Аватара пользователя
Стаж: 8 лет 9 месяцев
Сообщений: 479
Спасибок: 20187
Лайков: 16

maxim25:

а есть ли в озвучке гоблина? но с качеством 1080?
Пока вроде нет.
_________________
Изображение
Изображение
Не в сети
Профиль  
 Добавлено: 2013-09-21 14:56 (спустя 1 день 5 часов)
Кинокомментатор
Аватара пользователя
Стаж: 9 лет
Сообщений: 1331
Лайков: 52
то есть тут не гоблин?:( и что теперь делать...
Не в сети
Профиль  
 Добавлено: 2013-09-21 21:09 (спустя 6 часов)
Стаж: 5 лет 10 месяцев
Сообщений: 14
спасибо большое!!! давно ждал)
Не в сети
Профиль  
 Добавлено: 2013-09-22 18:42 (спустя 21 час)
Аватара пользователя
Стаж: 7 лет 4 месяца
Возраст: 25
Сообщений: 61
Спасибок: 358
А где татуха в пол лица?куда дели!!!!!!!!!!
_________________
Мой комп
Core i7 2600,DeepCool Ise Warrior,P8Z68-V LX,4x2Gb Samsung
Gigabyte GTX 560ti 448core, OCZ 600W
OCZ Agility 3 120Gb, 4x WD10EARX
Свернуть
Не в сети
Профиль  
 Добавлено: 2013-09-22 19:03 (спустя 20 минут)
Стаж: 5 лет 3 месяца
Сообщений: 150
Лайков: 1
Отстойная часть!Не смешная!
Не в сети
Профиль  
 Добавлено: 2013-09-24 23:03 (спустя 2 дня 4 часа)
Аватара пользователя
Стаж: 3 года 9 месяцев
Возраст: 39
Сообщений: 71
Спасибок: 959
Лайков: 5
Джокер
Респект братец
Огромное спасибо за ваш труд :)
Не в сети
Профиль  
 Добавлено: 2013-09-25 20:02 (спустя 20 часов)
Top-releaser
Аватара пользователя
Стаж: 8 лет 9 месяцев
Сообщений: 479
Спасибок: 20187
Лайков: 16

chaki71(RUS):

Джокер
Респект братец
Огромное спасибо за ваш труд :)
Всегда пожалуйста!!!
_________________
Изображение
Изображение
Не в сети
Профиль  
Начать новую темуОтветить на тему  [ Сообщений: 10 ] 
Вы не можете начинать темы
Вы не можете отвечать на сообщения
Вы не можете редактировать свои сообщения
Вы не можете удалять свои сообщения