Правила форума

  • В этом разделе создание новых тем Запрещено.
  • Для создания новых тем пользуйтесь Корневым разделом DVD и HD фильмы.
Начать новую темуОтветить на тему  [ Сообщений: 3 ] 
Торрент файл
Размер: 5.28 GB • Зарегистрирован: 3 года 2 месяца • Статус: Проверено
Скачан: 146 раз • Желающих скачать: 0 • Поблагодарили: 40 раз
 Раздают: 0  |  0 KB/s  ]   Качают: 0  |  0 KB/s  ] 
 Полного источника не было 1 день 2 часа 
Сообщения
 Добавлено: 2013-09-20 09:33
Top-releaser
Аватара пользователя
Стаж: 8 лет 9 месяцев
Сообщений: 479
Спасибок: 20187
Лайков: 16
Изображение

Мальчишник: Часть III

The Hangover Part III


«Вот это конец»

Год выпуска: 2013
Страна: Изображение США; Green Hat Films, Legendary Pictures
Жанр: Комедия
Продолжительность: 01:40:09
Перевод: Профессиональный (дублированный), Оригинал

Режиссёр: Тодд Филлипс / Todd Phillips

В ролях: Брэдли Купер, Мелисса МакКарти, Джон Гудмен, Джейми Чунг, Зак Галифианакис, Джастин Барта, Хезер Грэм, Эд Хелмс, Кен Жонг, Александра Баррези

Описание: В этот раз никакой свадьбы. Никакого мальчишника. Казалось бы, что могло пойти не так? Но когда Волчья стая оказывается на дороге, все ставки снимаются.


Качество: BDRip 720p
Формат: MKV

Видео: AVC at 5508 Кбит/сек, 1280 x 534 (2.397) at 23.976 fps

Аудио 1: AC-3 at 384 Кбит/сек, 6 каналов, 48,0 КГц [Дубляж]
Аудио 2: DTS at 1509 Кбит/сек, 6 каналов, 48,0 КГц [Оригинал]
Раздача: Изображение

Изображение

Изображение
MediaInfo

Общее
Уникальный идентификатор : 223673945423248719241754707216213005349 (0xA84608F0F99B5B48A720DCDB5450D425)
Полное имя : C:\Users\Домашний\Desktop\Malchishnik.3.2013.BDRip.720p.[nntt].mkv
Формат : Matroska
Версия формата : Version 2
Размер файла : 5,28 Гбайт
Продолжительность : 1 ч. 40 м.
Общий поток : 7551 Кбит/сек
Дата кодирования : UTC 2013-09-20 00:59:02
Программа кодирования : mkvmerge v5.2.0 ('I can't explain') built on Dec 18 2011 18:12:03
Библиотека кодирования : libebml v1.2.3 + libmatroska v1.3.0

Видео
Идентификатор : 1
Формат : AVC
Формат/Информация : Advanced Video Codec
Профиль формата : High@L4.1
Параметр CABAC формата : Да
Параметр ReFrames формата : 5 кадров
Идентификатор кодека : V_MPEG4/ISO/AVC
Продолжительность : 1 ч. 40 м.
Битрейт : 5508 Кбит/сек
Ширина : 1280 пикселей
Высота : 534 пикселя
Соотношение сторон : 2,40:1
Режим частоты кадров : Постоянный
Частота кадров : 23,976 кадра/сек
Цветовое пространство : YUV
Субдискретизация насыщенности : 4:2:0
Битовая глубина : 8 бит
Тип развёртки : Прогрессивная
Бит/(Пиксели*Кадры) : 0.336
Размер потока : 3,85 Гбайт (73%)
Язык : English
Default : Да
Forced : Нет

Аудио #1
Идентификатор : 2
Формат : AC-3
Формат/Информация : Audio Coding 3
Расширение режима : CM (complete main)
Параметр Endianness формата : Big
Идентификатор кодека : A_AC3
Продолжительность : 1 ч. 40 м.
Вид битрейта : Постоянный
Битрейт : 384 Кбит/сек
Каналы : 6 каналов
Расположение каналов : Front: L C R, Side: L R, LFE
Частота : 48,0 КГц
Битовая глубина : 16 бит
Метод сжатия : С потерями
Задержка видео : 1 с. 0 мс.
Размер потока : 275 Мбайт (5%)
Язык : Russian
Default : Да
Forced : Да

Аудио #2
Идентификатор : 3
Формат : DTS
Формат/Информация : Digital Theater Systems
Режим : 16
Параметр Endianness формата : Big
Идентификатор кодека : A_DTS
Продолжительность : 1 ч. 40 м.
Вид битрейта : Постоянный
Битрейт : 1509 Кбит/сек
Каналы : 6 каналов
Расположение каналов : Front: L C R, Side: L R, LFE
Частота : 48,0 КГц
Битовая глубина : 24 бит
Метод сжатия : С потерями
Размер потока : 1,06 Гбайт (20%)
Язык : English
Default : Нет
Forced : Нет

Меню
00:00:00.000 : en:00:00:00.000
00:10:49.983 : en:00:10:49.983
00:17:47.692 : en:00:17:47.692
00:26:16.992 : en:00:26:16.992
00:37:56.858 : en:00:37:56.858
00:47:01.736 : en:00:47:01.736
00:55:08.680 : en:00:55:08.680
01:06:09.632 : en:01:06:09.632
01:19:41.735 : en:01:19:41.735
01:27:44.843 : en:01:27:44.843
01:34:53.021 : en:01:34:53.021


Свернуть
"Знаете ли Вы, что..."

• Шон Пенн и Роберт Дауни-мл. рассматривались на роль, которая в итоге досталась Джону Гудману.
• Ближе к концу фильма, когда «волчья стая» возвращается к микроавтобусу, на заднем плане виден рекламный щит с Эдди (владелец свадебной часовни из первого фильма).
• В ломбарде Кэсси откусывает кусок леденца и жует его. В следующем кадре леденец выглядит нетронутым.
• Во дворце Цезаря Алан берет стопку полотенец. В следующей сцене на крыше вместо полотенец герои используют связанные вместе простыни, чтобы спуститься вниз.
• Ближе к концу фильма, после того как стреляют по багажнику лимузина, герои садятся в него и едут дальше, но при этом на багажнике не видно пулевых отверстий.


Свернуть
Скриншоты

Изображение
Изображение
Изображение
Изображение
Изображение
Изображение
Свернуть
_________________
Изображение
Изображение
Не в сети
Профиль  
 Добавлено: 2013-09-20 10:18 (спустя 45 минут)
Аватара пользователя
Стаж: 3 года 7 месяцев
Возраст: 36
Сообщений: 212
Спасибок: 1248
спс
Не в сети
Профиль  
 Добавлено: 2013-09-20 23:09 (спустя 12 часов)
Аватара пользователя
Стаж: 8 лет 1 месяц
Сообщений: 358
Спасибок: 744
Лайков: 13
Ооо, спасибо, давно ждал !!!
Не в сети
Профиль  
Начать новую темуОтветить на тему  [ Сообщений: 3 ] 
Вы не можете начинать темы
Вы не можете отвечать на сообщения
Вы не можете редактировать свои сообщения
Вы не можете удалять свои сообщения