Правила форума

  • В этом разделе создание новых тем Запрещено.
  • Для создания новых тем пользуйтесь Корневым разделом DVD и HD фильмы.
Начать новую темуОтветить на тему  [ Сообщений: 7 ] 
Торрент файл
Размер: 12.98 GB • Зарегистрирован: 5 лет 5 месяцев • Статус: Проверено
Скачан: 135 раз • Желающих скачать: 0 • Поблагодарили: 33 раза
 Раздают: 2  |  0 KB/s  ]   Качают: 0  |  0 KB/s  ] 
Сообщения
 Добавлено: 2011-06-07 17:07
Top-releaser
Аватара пользователя
Стаж: 6 лет 7 месяцев
Сообщений: 2078
Спасибок: 3230
Лайков: 9
Мальчишник в Вегасе (Театральная версия) / The Hangover (Theatrical Cut)

Изображение

Год выпуска: 2009
Страна: США
Жанр: Комедия
Продолжительность: 1:39:46
Перевод: Профессиональный (полное дублирование)
Режиссёр: Тодд Филлипс
В ролях: Брэдли Купер, Эд Хелмс, Зэк Галифианакис, Джастин Барта, Хэзер Грэм, Александра Баррези, Джефри Тэмбор, Кен Жонг, Рэйчел Харрис, Майк Тайсон
Описание: В разгар мальчишника трое друзей потеряли жениха. И это за 40 часов до свадьбы! Теперь им придётся восстановить ход своих мыслей, одурманенных накануне алкоголем, чтобы выяснить, что же произошло.

Качество: BD Remux
Формат: MKV
Видео кодек: VC-1
Аудио кодек: AC3 (Dolby Digital)
Видео: 1920x1080, 16513 kbps, 23.976 fps
Аудио #1: Русский AC3 5.1, 48 KHz, 640 kbps
Аудио #2: Украинский AC3 5.1, 48 KHz, 640 kbps
Аудио #3: Английский AC3 5.1, 48 KHz, 640 kbps
Аудио #4: Английский AC3 2.0, 48 KHz, 192 kbps (комментарии режиссёра и актёров)
Субтитры: Русские, английские
MediaInfo
General
Unique ID : 179146446063711233270478116063385354387 (0x86C659B9BE3E9769A9B9CF8FB1960093)
Complete name : G:\Мальчишник в Вегасе\Hangover.Theatrical Cut.2009.BD.Remux.1080p.VC-1.Rus.Ukr.Eng.Commentary\Hangover.1080p.mkv
Format : Matroska
File size : 13.0 GiB
Duration : 1h 39mn
Overall bit rate : 18.6 Mbps
Encoded date : UTC 2009-11-24 12:36:55
Writing application : mkvmerge v2.9.8 ('C'est le bon') built on Aug 13 2009 12:49:06
Writing library : libebml v0.7.7 + libmatroska v0.8.1

Video
ID : 1
Format : VC-1
Format profile : AP@L3
Codec ID : WVC1
Codec ID/Hint : Microsoft
Duration : 1h 39mn
Bit rate : 16.1 Mbps
Width : 1 920 pixels
Height : 1 080 pixels
Display aspect ratio : 16:9
Frame rate : 23.976 fps
Chroma subsampling : 4:2:0
Bit depth : 8 bits
Scan type : Progressive
Compression mode : Lossy
Bits/(Pixel*Frame) : 0.325
Stream size : 11.3 GiB (87%)
Language : English

Audio #1
ID : 2
Format : AC-3
Format/Info : Audio Coding 3
Mode extension : CM (complete main)
Codec ID : A_AC3
Duration : 1h 39mn
Bit rate mode : Constant
Bit rate : 640 Kbps
Channel(s) : 6 channels
Channel positions : Front: L C R, Side: L R, LFE
Sampling rate : 48.0 KHz
Bit depth : 16 bits
Compression mode : Lossy
Stream size : 457 MiB (3%)
Title : AC3 5.1 640 kbps
Language : Russian

Audio #2
ID : 3
Format : AC-3
Format/Info : Audio Coding 3
Mode extension : CM (complete main)
Codec ID : A_AC3
Duration : 1h 39mn
Bit rate mode : Constant
Bit rate : 640 Kbps
Channel(s) : 6 channels
Channel positions : Front: L C R, Side: L R, LFE
Sampling rate : 48.0 KHz
Bit depth : 16 bits
Compression mode : Lossy
Stream size : 457 MiB (3%)
Title : AC3 5.1 640 kbps
Language : Ukrainian

Audio #3
ID : 4
Format : AC-3
Format/Info : Audio Coding 3
Mode extension : CM (complete main)
Codec ID : A_AC3
Duration : 1h 39mn
Bit rate mode : Constant
Bit rate : 640 Kbps
Channel(s) : 6 channels
Channel positions : Front: L C R, Side: L R, LFE
Sampling rate : 48.0 KHz
Bit depth : 16 bits
Compression mode : Lossy
Stream size : 457 MiB (3%)
Title : AC3 5.1 640 kbps
Language : English

Audio #4
ID : 5
Format : AC-3
Format/Info : Audio Coding 3
Mode extension : CM (complete main)
Codec ID : A_AC3
Duration : 1h 39mn
Bit rate mode : Constant
Bit rate : 192 Kbps
Channel(s) : 2 channels
Channel positions : Front: L R
Sampling rate : 48.0 KHz
Bit depth : 16 bits
Compression mode : Lossy
Stream size : 137 MiB (1%)
Title : Commentary by Director and Actors AC3 2.0 192 kbps
Language : English

Text #1
ID : 6
Format : UTF-8
Codec ID : S_TEXT/UTF8
Codec ID/Info : UTF-8 Plain Text
Title : License
Language : Russian

Text #2
ID : 7
Format : UTF-8
Codec ID : S_TEXT/UTF8
Codec ID/Info : UTF-8 Plain Text
Title : Sleng (by seqw0)
Language : Russian

Text #3
ID : 8
Format : UTF-8
Codec ID : S_TEXT/UTF8
Codec ID/Info : UTF-8 Plain Text
Title : Tol'ko nadpisi
Language : Russian

Text #4
ID : 9
Format : UTF-8
Codec ID : S_TEXT/UTF8
Codec ID/Info : UTF-8 Plain Text
Language : English

Menu
00:00:00.000 : en:00:00:00.000
00:03:43.390 : en:00:03:43.390
00:09:15.013 : en:00:09:15.013
00:14:10.183 : en:00:14:10.183
00:18:59.221 : en:00:18:59.221
00:23:19.023 : en:00:23:19.023
00:28:59.696 : en:00:28:59.696
00:34:03.375 : en:00:34:03.375
00:37:03.596 : en:00:37:03.596
00:39:53.975 : en:00:39:53.975
00:42:51.194 : en:00:42:51.194
00:47:34.977 : en:00:47:34.977
00:52:08.375 : en:00:52:08.375
00:57:48.173 : en:00:57:48.173
01:01:08.999 : en:01:01:08.999
01:05:28.258 : en:01:05:28.258
01:07:57.991 : en:01:07:57.991
01:12:32.431 : en:01:12:32.431
01:16:24.079 : en:01:16:24.079
01:22:40.164 : en:01:22:40.164
01:25:50.062 : en:01:25:50.062
01:30:21.625 : en:01:30:21.625
01:32:48.188 : en:01:32:48.188
01:36:00.880 : en:01:36:00.880
Свернуть
Скриншоты
Изображение

Изображение

Изображение

Изображение
Свернуть
Не в сети
Профиль  
 Добавлено: 2011-06-08 08:52 (спустя 15 часов)
Аватара пользователя
Стаж: 8 лет 3 месяца
Возраст: 43
Сообщений: 3290
Спасибок: 21012
Лайков: 3
Remux уже есть на трекере, но там что-то с переводом
_________________
Изображение
Не в сети
Профиль  
 Добавлено: 2011-06-08 09:04 (спустя 12 минут)
Top-releaser
Аватара пользователя
Стаж: 6 лет 7 месяцев
Сообщений: 2078
Спасибок: 3230
Лайков: 9
Иванишко
вчера смотрел. все норм
Не в сети
Профиль  
 Добавлено: 2011-06-15 11:27 (спустя 7 дней)
Аватара пользователя
Стаж: 8 лет 3 месяца
Сообщений: 188
Спасибок: 717
И в Remux'e и в BDRip'e видимо такой косяк с переводом именно в расширенной версии, качаю этот релиз, надеюсь и правда перевод в порядке!
Не в сети
Профиль  
 Добавлено: 2011-07-09 10:45 (спустя 23 дня)
Аватара пользователя
Стаж: 8 лет 10 месяцев
Сообщений: 703
Спасибок: 11142
Лайков: 2
Как перевод? Качать можно?
Не в сети
Профиль  
 Добавлено: 2011-07-09 10:47 (спустя 1 минута)
Top-releaser
Аватара пользователя
Стаж: 6 лет 7 месяцев
Сообщений: 2078
Спасибок: 3230
Лайков: 9

Pahan85:

Как перевод? Качать можно?
Обычный перевод. сам несколько раз смотрел
Не в сети
Профиль  
 Добавлено: 2016-09-22 17:58 (спустя 5 лет 2 месяца)
Стаж: 4 года 3 месяца
Сообщений: 19
Лайков: 2
Встаньте на раздачу пожалуйста!(
Не в сети
Профиль  
Начать новую темуОтветить на тему  [ Сообщений: 7 ] 
Вы не можете начинать темы
Вы не можете отвечать на сообщения
Вы не можете редактировать свои сообщения
Вы не можете удалять свои сообщения