Правила форума

  • В этом разделе создание новых тем Запрещено.
  • Для создания новых тем пользуйтесь Корневым разделом DVD и HD фильмы.
Начать новую темуОтветить на тему  [ Сообщений: 4 ] 
Торрент файл
Размер: 3.69 GB • Зарегистрирован: 2 года 2 месяца • Статус: Проверено
Скачан: 100 раз • Желающих скачать: 0 • Поблагодарили: 27 раз
 Раздают: 0  |  0 KB/s  ]   Качают: 0  |  0 KB/s  ] 
 Полного источника не было 6 часов 
Сообщения
 Добавлено: 2014-09-14 08:07
RG-ELEKTRO
Аватара пользователя
Стаж: 2 года 3 месяца
Сообщений: 7928
Спасибок: 53776
Лайков: 3304
Изображение


Название: Малефисента
Оригинальное название: Maleficent
Год выхода: 2014
Жанр: фэнтези, семейный, мелодрама, приключения
Режиссер: Роберт Стромберг
В ролях: Анджелина Джоли, Эль Фаннинг, Шарлто Копли, Сэм Райли, Имелда Стонтон, Джуно Темпл, Лесли Мэнвилл, Брентон Туэйтс, Кеннет Крэнэм, Изобель Моллой

О фильме:
Юная волшебница Малефисента вела уединенную жизнь в зачарованном лесу, окруженная сказочными существами, но однажды все изменилось… В её мир вторглись люди, которые принесли с собой разрушение и хаос, и Малефисенте пришлось встать на защиту своих подданных, призвав на помощь могущественные тёмные силы. В пылу борьбы Малефисента наложила страшное заклятие на новорожденную дочь короля, прекрасную Аврору. Но, наблюдая за тем, как растет маленькая принцесса, Малефисента начинает сомневаться в правильности своего поступка — ведь, возможно, именно Аврора может вдохнуть новую жизнь в волшебное лесное царство.

Изображение

Страна: США, Великобритания
Студия: Roth Films, Walt Disney Pictures

Продолжительность: 01:37:50
Перевод: Русский дублированный (Лицензия)

Файл
Кодек: H.264
Формат: MKV
Качество: BDRip 720p
Видео: 1280x534, 2.40:1, 4 400 Kbps, 23.976 fps
Звук:
1: АС3 5.1 640 kbps - Русский дублированный
2: АС3 5.1 384 kbps - Английский
Субтитры: Русский, Английский (Full, SDH)

"MediaInfo"
General
Unique ID : 220050311902100766681151658090055017453 (0xA58C2603DC30823496902AE738CF23ED)
Complete name : I:modoutMalefisenta.2014.720p.D.mkv
Format : Matroska
Format version : Version 4 / Version 2
File size : 3.69 GiB
Duration : 1h 37mn
Overall bit rate : 5 419 Kbps
Encoded date : UTC 2014-09-13 14:38:01
Writing application : mkvmerge v7.1.0 ('Good Love') 64bit built on Jul 27 2014 13:06:55
Writing library : libebml v1.3.0 + libmatroska v1.4.1
Attachements : cover.jpg / info.txt
DURATION : 01:37:28.160000000
NUMBER_OF_FRAMES : 182755
NUMBER_OF_BYTES : 280711680
_STATISTICS_WRITING_APP : mkvmerge v7.1.0 ('Good Love') 64bit built on Jul 27 2014 13:06:55
_STATISTICS_WRITING_DATE_UTC : 2014-09-13 14:38:01
_STATISTICS_TAGS : BPS DURATION NUMBER_OF_FRAMES NUMBER_OF_BYTES

Video
ID : 1
Format : AVC
Format/Info : Advanced Video Codec
Format profile : High@L4.1
Format settings, CABAC : Yes
Format settings, ReFrames : 10 frames
Codec ID : V_MPEG4/ISO/AVC
Duration : 1h 37mn
Bit rate : 4 287 Kbps
Width : 1 280 pixels
Height : 534 pixels
Display aspect ratio : 2.40:1
Original display aspect ratio : 2.40:1
Frame rate mode : Constant
Frame rate : 23.976 fps
Color space : YUV
Chroma subsampling : 4:2:0
Bit depth : 8 bits
Scan type : Progressive
Bits/(Pixel*Frame) : 0.262
Stream size : 2.92 GiB (79%)
Language : English
Default : Yes
Forced : No
Matrix coefficients : BT.709
DURATION : 01:37:28.051000000
NUMBER_OF_FRAMES : 140214
NUMBER_OF_BYTES : 3210639938
_STATISTICS_WRITING_APP : mkvmerge v7.1.0 ('Good Love') 64bit built on Jul 27 2014 13:06:55
_STATISTICS_WRITING_DATE_UTC : 2014-09-13 14:38:01
_STATISTICS_TAGS : BPS DURATION NUMBER_OF_FRAMES NUMBER_OF_BYTES

Audio #1
ID : 2
Format : AC-3
Format/Info : Audio Coding 3
Mode extension : CM (complete main)
Format settings, Endianness : Big
Codec ID : A_AC3
Duration : 1h 37mn
Bit rate mode : Constant
Bit rate : 640 Kbps
Channel(s) : 6 channels
Channel positions : Front: L C R, Side: L R, LFE
Sampling rate : 48.0 KHz
Bit depth : 16 bits
Compression mode : Lossy
Stream size : 446 MiB (12%)
Title : DUB
Language : Russian
Default : Yes
Forced : No

Audio #2
ID : 3
Format : AC-3
Format/Info : Audio Coding 3
Mode extension : CM (complete main)
Format settings, Endianness : Big
Codec ID : A_AC3
Duration : 1h 37mn
Bit rate mode : Constant
Bit rate : 384 Kbps
Channel(s) : 6 channels
Channel positions : Front: L C R, Side: L R, LFE
Sampling rate : 48.0 KHz
Bit depth : 16 bits
Compression mode : Lossy
Stream size : 268 MiB (7%)
Language : English
Default : No
Forced : No

Text #1
ID : 4
Format : UTF-8
Codec ID : S_TEXT/UTF8
Codec ID/Info : UTF-8 Plain Text
Language : Russian
Default : Yes
Forced : No

Text #2
ID : 5
Format : UTF-8
Codec ID : S_TEXT/UTF8
Codec ID/Info : UTF-8 Plain Text
Title : SDH
Language : English
Default : No
Forced : No

Text #3
ID : 6
Format : UTF-8
Codec ID : S_TEXT/UTF8
Codec ID/Info : UTF-8 Plain Text
Language : English
Default : No
Forced : No

Menu #1
00:00:00.000 : en:00:00:00.000
00:03:00.597 : en:00:03:00.597
00:08:10.949 : en:00:08:10.949
00:14:00.757 : en:00:14:00.757
00:19:10.608 : en:00:19:10.608
00:25:59.057 : en:00:25:59.057
00:33:09.738 : en:00:33:09.738
00:38:30.808 : en:00:38:30.808
00:43:21.140 : en:00:43:21.140
00:46:56.105 : en:00:46:56.105
00:51:11.944 : en:00:51:11.944
00:54:18.797 : en:00:54:18.797
00:58:37.723 : en:00:58:37.723
01:01:58.048 : en:01:01:58.048
01:05:09.989 : en:01:05:09.989
01:09:56.776 : en:01:09:56.776
01:15:40.619 : en:01:15:40.619
01:17:43.659 : en:01:17:43.659
01:25:44.931 : en:01:25:44.931
01:28:38.647 : en:01:28:38.647

Menu #2
00:00:00.000 : en:Chapter 1
00:03:00.597 : en:Chapter 2
00:08:10.948 : en:Chapter 3
00:14:00.756 : en:Chapter 4
00:19:10.607 : en:Chapter 5
00:25:59.057 : en:Chapter 6
00:33:09.737 : en:Chapter 7
00:38:30.808 : en:Chapter 8
00:43:21.140 : en:Chapter 9
00:46:56.104 : en:Chapter 10
00:51:11.943 : en:Chapter 11
00:54:18.797 : en:Chapter 12
00:58:37.722 : en:Chapter 13
01:01:58.047 : en:Chapter 14
01:05:09.989 : en:Chapter 15
01:09:56.775 : en:Chapter 16
01:15:40.619 : en:Chapter 17
01:17:43.659 : en:Chapter 18
01:25:44.931 : en:Chapter 19
01:28:38.646 : en:Chapter 20
Свернуть
"x264"
x264 [info]: started at Sat Sep 13 13:14:05 2014
x264 [info]: frame I:1237 Avg QP:13.59 size:181736
x264 [info]: frame P:32587 Avg QP:17.60 size: 47357
x264 [info]: frame B:106390 Avg QP:20.44 size: 13560
x264 [info]: consecutive B-frames: 2.8% 2.8% 13.0% 21.6% 17.5% 32.7% 5.4% 2.2% 2.0%
x264 [info]: mb I I16..4: 20.4% 52.0% 27.6%
x264 [info]: mb P I16..4: 0.3% 5.5% 1.4% P16..4: 22.7% 33.7% 17.9% 7.9% 1.9% skip: 8.6%
x264 [info]: mb B I16..4: 0.0% 0.9% 0.2% B16..8: 32.5% 21.3% 4.3% direct: 7.3% skip:33.5% L0:38.9% L1:42.9% BI:18.3%
x264 [info]: 8x8 transform intra:70.9% inter:47.0%
x264 [info]: coded y,uvDC,uvAC intra: 93.3% 92.3% 83.0% inter: 28.4% 27.7% 16.0%
x264 [info]: i16 v,h,dc,p: 19% 8% 30% 44%
x264 [info]: i8 v,h,dc,ddl,ddr,vr,hd,vl,hu: 12% 7% 8% 11% 15% 12% 12% 11% 12%
x264 [info]: i4 v,h,dc,ddl,ddr,vr,hd,vl,hu: 18% 6% 8% 9% 14% 12% 12% 10% 12%
x264 [info]: i8c dc,h,v,p: 29% 15% 12% 44%
x264 [info]: Weighted P-Frames: Y:8.1% UV:4.2%
x264 [info]: ref P L0: 55.3% 10.7% 13.8% 6.0% 4.3% 3.1% 2.4% 1.5% 1.4% 1.2% 0.3% 0.0%
x264 [info]: ref B L0: 83.6% 7.9% 3.4% 1.6% 1.2% 0.9% 0.7% 0.6% 0.3%
x264 [info]: ref B L1: 92.8% 7.2%
x264 [info]: kb/s:4392.05
Свернуть
"Screenshots"
Изображение
Изображение
Изображение



Свернуть
_________________
Не ищите меня в "ВКонтакте", в "Одноклассниках" меня нет - я на трекерах сижу!
Не в сети
Профиль  
 Добавлено: 2014-09-15 08:23 (спустя 1 день)
Модератор
Аватара пользователя
Стаж: 7 лет 9 месяцев
Сообщений: 4521
Спасибок: 112857
Лайков: 583
Оля 88
скриншоты не должны содержать посторонних записей на них!
пожалуйста, переделайте!
Не в сети
Профиль  
 Добавлено: 2014-09-15 15:14 (спустя 6 часов)
RG-ELEKTRO
Аватара пользователя
Стаж: 2 года 3 месяца
Сообщений: 7928
Спасибок: 53776
Лайков: 3304
Поняла :)
_________________
Не ищите меня в "ВКонтакте", в "Одноклассниках" меня нет - я на трекерах сижу!
Не в сети
Профиль  
 Добавлено: 2014-09-18 19:34 (спустя 3 дня)
Аватара пользователя
Стаж: 7 лет 8 месяцев
Возраст: 24
Сообщений: 262
Спасибок: 97
Обе звуковые дорожки — русские :(
Не в сети
Профиль  
Начать новую темуОтветить на тему  [ Сообщений: 4 ] 
Вы не можете начинать темы
Вы не можете отвечать на сообщения
Вы не можете редактировать свои сообщения
Вы не можете удалять свои сообщения