Правила форума

  • В этом разделе создание новых тем Запрещено.
  • Для создания новых тем пользуйтесь Корневым разделом DVD и HD фильмы.
Начать новую темуОтветить на тему  [ 1 сообщение ] 
Торрент файл
Размер: 4.63 GB • Зарегистрирован: 1 год 5 месяцев • Статус: Проверено
Скачан: 26 раз • Желающих скачать: 0 • Поблагодарили: 1 раз
 Раздают: 1  |  116 KB/s  ]   Качают: 0  |  0 KB/s  ] 
Сообщения
 Добавлено: 2015-06-06 19:45
RG-ELEKTRO
Аватара пользователя
Стаж: 2 года 3 месяца
Сообщений: 7928
Спасибок: 53743
Лайков: 3304
Маленькая смерть / The Little Death



Изображение


Год выпуска: 2014
Страна: Австралия (Head Gear Films, See Pictures)
Жанр: Комедия
Продолжительность: 01:32:50
Перевод: Профессиональный (многоголосный) [iTunes] + Оригинальная звуковая дорожка
Субтитры: Aнглийские

Режиссёр: Джошуа Лосон
В ролях: Бояна Новакович, Джошуа Лосон, Дэймон Херриман, Бен Лосон, Тэсним Рок, Лиза МакКьюн, Лейчи Халм, Кейт Малвэйни, Патрик Браммалль, Т.Дж. Пауэр
Описание: Сюжет фильма рассказывает о взаимоотношениях нескольких любовных пар. Пол и Мэйв всячески пытаются разнообразить свою интимную жизнь, прибегая к достаточно жестоким методам. Правда тайные фантазии девушки немного шокируют ее парня, но он старается не показывать этого. Ричард и Рованна на протяжении некоторого времени пытаются зачать ребенка, однако все их попытки уже давно превратились в механические действия, не приносящие никакого удовольствия. В это время в отношениях Дэна и Эви появляется довольно много проблем и они обращаются за помощью к профессиональному консультанту. Все они имеют тайные страхи и желания, но для каждого из них расставание равносильно смерти. Всеми способами они пытаются сохранить свои отношения, стараясь сделать любимого человека счастливым, что довольно часто приводит к курьезным ситуациям…
Изображение Изображение Изображение
Качество: BDRip 720p
Формат: MKV
Видео кодек: MPEG-4 AVC
Аудио кодек: AC3 / DTS
Видео: MPEG-4 AVC, 4986 Кбит/с, 1280x536
Аудио #1: АС3, 6 ch, 384 Кбит/с [Профессиональный (многоголосный)]
Аудио #2: Aнглийский (DTS, 6 ch, 1510 Кбит/с) [Оригинальная звуковая дорожка]
Субтитры: Aнглийские
"MI"
Общее
Unique ID : 253743125504893262529739681746089766628 (0xBEE525FADED1637BB8E62B6A64E96EE4)
Complete name : D:RelizismertMalenkay.Smert.2014.P.BDRip.720p.ELEKTRI4KA.uniongang.tv.mkv
Format : Matroska
Format version : Version 4 / Version 2
File size : 4.63 GiB
Duration : 1h 36mn
Overall bit rate : 6 879 Kbps
Movie name : Malenkay.Smert.2014.P.BDRip.720p.ELEKTRI4KA.uniongang.tv
Encoded date : UTC 2015-06-06 08:14:26
Writing application : mkvmerge v7.7.0 ('Six Voices') 32bit built on Feb 28 2015 23:23:00
Writing library : libebml v1.3.1 + libmatroska v1.4.2
DURATION : 01:36:20.576000000
NUMBER_OF_FRAMES : 180643
NUMBER_OF_BYTES : 277467648
_STATISTICS_WRITING_APP : mkvmerge v7.7.0 ('Six Voices') 32bit built on Feb 28 2015 23:23:00
_STATISTICS_WRITING_DATE_UTC : 2015-06-06 08:14:26
_STATISTICS_TAGS : BPS DURATION NUMBER_OF_FRAMES NUMBER_OF_BYTES

Video
ID : 1
Format : AVC
Format/Info : Advanced Video Codec
Format profile : High@L4.1
Format settings, CABAC : Yes
Format settings, ReFrames : 9 frames
Codec ID : V_MPEG4/ISO/AVC
Duration : 1h 36mn
Bit rate : 4 986 Kbps
Width : 1 280 pixels
Height : 536 pixels
Display aspect ratio : 2.40:1
Frame rate mode : Constant
Frame rate : 24.000 fps
Color space : YUV
Chroma subsampling : 4:2:0
Bit depth : 8 bits
Scan type : Progressive
Bits/(Pixel*Frame) : 0.303
Stream size : 3.26 GiB (70%)
Title : Malenkay.Smert.2014.P.BDRip.720p.ELEKTRI4KA.uniongang.tv
Writing library : x264 core 144 r2525 40bb568
Encoding settings : cabac=1 / ref=9 / deblock=1:-3:-3 / analyse=0x3:0x113 / me=umh / subme=10 / psy=1 / psy_rd=1.05:0.00 / mixed_ref=1 / me_range=36 / chroma_me=1 / trellis=2 / 8x8dct=1 / cqm=0 / deadzone=21,11 / fast_pskip=0 / chroma_qp_offset=-2 / threads=12 / lookahead_threads=2 / sliced_threads=0 / nr=0 / decimate=0 / interlaced=0 / bluray_compat=0 / constrained_intra=0 / bframes=9 / b_pyramid=2 / b_adapt=2 / b_bias=0 / direct=3 / weightb=1 / open_gop=0 / weightp=2 / keyint=250 / keyint_min=24 / scenecut=40 / intra_refresh=0 / rc=2pass / mbtree=0 / bitrate=4986 / ratetol=1.0 / qcomp=0.60 / qpmin=0 / qpmax=69 / qpstep=4 / cplxblur=20.0 / qblur=0.5 / ip_ratio=1.40 / pb_ratio=1.30 / aq=1:0.70
Language : English
Default : Yes
Forced : No
DURATION : 01:36:22.250000000
NUMBER_OF_FRAMES : 138774
NUMBER_OF_BYTES : 3601586566
_STATISTICS_WRITING_APP : mkvmerge v7.7.0 ('Six Voices') 32bit built on Feb 28 2015 23:23:00
_STATISTICS_WRITING_DATE_UTC : 2015-06-06 08:14:26
_STATISTICS_TAGS : BPS DURATION NUMBER_OF_FRAMES NUMBER_OF_BYTES

Audio #1
ID : 2
Format : AC-3
Format/Info : Audio Coding 3
Mode extension : CM (complete main)
Format settings, Endianness : Big
Codec ID : A_AC3
Duration : 1h 36mn
Bit rate mode : Constant
Bit rate : 384 Kbps
Channel(s) : 6 channels
Channel positions : Front: L C R, Side: L R, LFE
Sampling rate : 48.0 KHz
Bit depth : 16 bits
Compression mode : Lossy
Stream size : 265 MiB (6%)
Title : Malenkay.Smert.2014.P.BDRip.720p.ELEKTRI4KA.uniongang.tv
Language : Russian
Default : Yes
Forced : No

Audio #2
ID : 3
Format : DTS
Format/Info : Digital Theater Systems
Mode : 16
Format settings, Endianness : Big
Codec ID : A_DTS
Duration : 1h 36mn
Bit rate mode : Constant
Bit rate : 1 509 Kbps
Channel(s) : 6 channels
Channel positions : Front: L C R, Side: L R, LFE
Sampling rate : 48.0 KHz
Bit depth : 24 bits
Compression mode : Lossy
Stream size : 1.02 GiB (22%)
Title : Malenkay.Smert.2014.P.BDRip.720p.ELEKTRI4KA.uniongang.tv
Language : English
Default : No
Forced : No

Text #1
ID : 4
Format : UTF-8
Codec ID : S_TEXT/UTF8
Codec ID/Info : UTF-8 Plain Text
Title : Malenkay.Smert.2014.P.BDRip.720p.ELEKTRI4KA.uniongang.tv
Language : English
Default : No
Forced : No

Text #2
ID : 5
Format : UTF-8
Codec ID : S_TEXT/UTF8
Codec ID/Info : UTF-8 Plain Text
Title : English (SDH)
Language : English
Default : No
Forced : No

Menu
00:00:00.000 : en:00:00:00.000
00:08:38.583 : en:00:08:38.583
00:16:23.125 : en:00:16:23.125
00:25:36.833 : en:00:25:36.833
00:31:24.083 : en:00:31:24.083
00:42:40.292 : en:00:42:40.292
00:50:13.083 : en:00:50:13.083
01:00:38.417 : en:01:00:38.417
01:07:47.750 : en:01:07:47.750
01:16:12.417 : en:01:16:12.417
01:24:58.250 : en:01:24:58.250
01:30:59.750 : en:01:30:59.750
Свернуть

Скриншоты
Изображение
Изображение
Изображение
Изображение
Свернуть


Изображение


Изображение Изображение
_________________
Не ищите меня в "ВКонтакте", в "Одноклассниках" меня нет - я на трекерах сижу!
Не в сети
Профиль  
Начать новую темуОтветить на тему  [ 1 сообщение ] 
Вы не можете начинать темы
Вы не можете отвечать на сообщения
Вы не можете редактировать свои сообщения
Вы не можете удалять свои сообщения