Правила форума

  • В этом разделе создание новых тем Запрещено.
  • Для создания новых тем пользуйтесь Корневым разделом DVD и HD фильмы.
Начать новую темуОтветить на тему  [ Сообщений: 2 ] 
Торрент файл
Размер: 7.63 GB • Зарегистрирован: 1 год 6 месяцев • Статус: Проверено
Скачан: 52 раза • Желающих скачать: 0 • Поблагодарили: 7 раз
 Раздают: 0  |  0 KB/s  ]   Качают: 0  |  0 KB/s  ] 
 Полного источника не было 2 дня 15 часов 
Сообщения
 Добавлено: 2015-06-06 19:57
RG-ELEKTRO
Аватара пользователя
Стаж: 2 года 3 месяца
Сообщений: 7928
Спасибок: 53792
Лайков: 3304
Маленькая смерть / The Little Death



Изображение


Год выпуска: 2014
Страна: Австралия (Head Gear Films, See Pictures)
Жанр: Комедия
Продолжительность: 01:32:50
Перевод: Профессиональный (многоголосный) [iTunes] + Оригинальная звуковая дорожка
Субтитры: Aнглийские

Режиссёр: Джошуа Лосон
В ролях: Бояна Новакович, Джошуа Лосон, Дэймон Херриман, Бен Лосон, Тэсним Рок, Лиза МакКьюн, Лейчи Халм, Кейт Малвэйни, Патрик Браммалль, Т.Дж. Пауэр
Описание: Сюжет фильма рассказывает о взаимоотношениях нескольких любовных пар. Пол и Мэйв всячески пытаются разнообразить свою интимную жизнь, прибегая к достаточно жестоким методам. Правда тайные фантазии девушки немного шокируют ее парня, но он старается не показывать этого. Ричард и Рованна на протяжении некоторого времени пытаются зачать ребенка, однако все их попытки уже давно превратились в механические действия, не приносящие никакого удовольствия. В это время в отношениях Дэна и Эви появляется довольно много проблем и они обращаются за помощью к профессиональному консультанту. Все они имеют тайные страхи и желания, но для каждого из них расставание равносильно смерти. Всеми способами они пытаются сохранить свои отношения, стараясь сделать любимого человека счастливым, что довольно часто приводит к курьезным ситуациям…
Изображение Изображение
Качество: BDRip 1080p
Формат: MKV
Видео кодек: MPEG-4 AVC
Аудио кодек: AC3
Видео: MPEG-4 AVC, 9860 Кбит/сек, 1920х800 (2.40:1), 24.000 кадра/сек
Аудио #1: АС3, 6 ch, 384 Кбит/с [Профессиональный (многоголосный)]
Аудио #2: AC3, 6 каналов, 448 Кбит/сек [юбительский (одноголосый)] datynet
Аудио #3: Aнглийский (AC3, 6 каналов, 640 Кбит/сек ) [Оригинальная звуковая дорожка]
Субтитры: Русские, английские (Full, SDH)
"MI"
Общее
Уникальный идентификатор : 200609787961902173803432549246531865815 (0x96EC0A2ED85B3CC68004EDD1EA310CD7)
Полное имя : The Little Death. (2014) BDRip 1080p.mkv
Формат : Matroska
Версия формата : Version 2
Размер файла : 7,63 Гбайт
Продолжительность : 1 ч. 36 м.
Общий поток : 11,3 Мбит/сек
Название фильма : The Little Death. 2014
Дата кодирования : UTC 2015-06-06 13:54:16
Программа кодирования : mkvmerge v5.8.0 ('No Sleep / Pillow') built on Sep 2 2012 15:37:04
Библиотека кодирования : libebml v1.2.3 + libmatroska v1.3.0

Видео
Идентификатор : 1
Формат : AVC
Формат/Информация : Advanced Video Codec
Профиль формата : High@L4.1
Параметр CABAC формата : Да
Параметр ReFrames формата : 5 кадров
Идентификатор кодека : V_MPEG4/ISO/AVC
Продолжительность : 1 ч. 36 м.
Битрейт : 9860 Кбит/сек
Ширина : 1920 пикселей
Высота : 800 пикселей
Соотношение сторон : 2,40:1
Режим частоты кадров : Постоянный
Частота кадров : 24,000 кадра/сек
Цветовое пространство : YUV
Субдискретизация насыщенности : 4:2:0
Битовая глубина : 8 бит
Тип развёртки : Прогрессивная
Бит/(Пиксели*Кадры) : 0.267
Размер потока : 6,49 Гбайт (85%)
Заголовок : CADAVER
Библиотека кодирования : x264 core 144 r2525 40bb568
Настройки программы : cabac=1 / ref=5 / deblock=1:-3:-3 / analyse=0x3:0x113 / me=umh / subme=11 / psy=1 / psy_rd=1.05:0.00 / mixed_ref=1 / me_range=36 / chroma_me=1 / trellis=2 / 8x8dct=1 / cqm=0 / deadzone=21,11 / fast_pskip=0 / chroma_qp_offset=-2 / threads=12 / lookahead_threads=3 / sliced_threads=0 / nr=0 / decimate=0 / interlaced=0 / bluray_compat=0 / constrained_intra=0 / bframes=10 / b_pyramid=2 / b_adapt=2 / b_bias=0 / direct=3 / weightb=1 / open_gop=0 / weightp=2 / keyint=250 / keyint_min=24 / scenecut=40 / intra_refresh=0 / rc=2pass / mbtree=0 / bitrate=9860 / ratetol=1.0 / qcomp=0.60 / qpmin=0 / qpmax=69 / qpstep=4 / cplxblur=20.0 / qblur=0.5 / ip_ratio=1.40 / pb_ratio=1.30 / aq=1:0.60
Язык : English
Default : Да
Forced : Нет

Аудио #1
Идентификатор : 2
Формат : AC-3
Формат/Информация : Audio Coding 3
Расширение режима : CM (complete main)
Параметр Endianness формата : Big
Идентификатор кодека : A_AC3
Продолжительность : 1 ч. 36 м.
Вид битрейта : Постоянный
Битрейт : 384 Кбит/сек
Каналы : 6 каналов
Расположение каналов : Front: L C R, Side: L R, LFE
Частота : 48,0 КГц
Битовая глубина : 16 бит
Метод сжатия : С потерями
Размер потока : 265 Мбайт (3%)
Заголовок : MVO | iTunes
Язык : Russian
Default : Да
Forced : Нет

Аудио #2
Идентификатор : 3
Формат : AC-3
Формат/Информация : Audio Coding 3
Расширение режима : CM (complete main)
Параметр Endianness формата : Big
Идентификатор кодека : A_AC3
Продолжительность : 1 ч. 36 м.
Вид битрейта : Постоянный
Битрейт : 448 Кбит/сек
Каналы : 6 каналов
Расположение каналов : Front: L C R, Side: L R, LFE
Частота : 48,0 КГц
Битовая глубина : 16 бит
Метод сжатия : С потерями
Размер потока : 309 Мбайт (4%)
Заголовок : L1 | datynet
Язык : Russian
Default : Нет
Forced : Нет

Аудио #3
Идентификатор : 4
Формат : AC-3
Формат/Информация : Audio Coding 3
Расширение режима : CM (complete main)
Параметр Endianness формата : Big
Идентификатор кодека : A_AC3
Продолжительность : 1 ч. 36 м.
Вид битрейта : Постоянный
Битрейт : 640 Кбит/сек
Каналы : 6 каналов
Расположение каналов : Front: L C R, Side: L R, LFE
Частота : 48,0 КГц
Битовая глубина : 16 бит
Метод сжатия : С потерями
Размер потока : 441 Мбайт (6%)
Заголовок : Original
Язык : English
Default : Нет
Forced : Нет

Текст #1
Идентификатор : 5
Формат : UTF-8
Идентификатор кодека : S_TEXT/UTF8
Идентификатор кодека/Информация : UTF-8 Plain Text
Заголовок : Full
Язык : Russian
Default : Нет
Forced : Нет

Текст #2
Идентификатор : 6
Формат : UTF-8
Идентификатор кодека : S_TEXT/UTF8
Идентификатор кодека/Информация : UTF-8 Plain Text
Заголовок : Full
Язык : English
Default : Нет
Forced : Нет

Текст #3
Идентификатор : 7
Формат : UTF-8
Идентификатор кодека : S_TEXT/UTF8
Идентификатор кодека/Информация : UTF-8 Plain Text
Заголовок : SDH
Язык : English
Default : Нет
Forced : Нет

Меню
00:00:00.000 : en:00:00:00.000
00:08:38.583 : en:00:08:38.583
00:16:23.125 : en:00:16:23.125
00:25:36.833 : en:00:25:36.833
00:31:24.083 : en:00:31:24.083
00:42:40.292 : en:00:42:40.292
00:50:13.083 : en:00:50:13.083
01:00:38.417 : en:01:00:38.417
01:07:47.750 : en:01:07:47.750
01:16:12.417 : en:01:16:12.417
01:24:58.250 : en:01:24:58.250
01:30:59.750 : en:01:30:59.750
Свернуть

Скриншоты
Изображение
Изображение
Изображение
Свернуть


Изображение


Изображение Изображение
_________________
Не ищите меня в "ВКонтакте", в "Одноклассниках" меня нет - я на трекерах сижу!
Не в сети
Профиль  
 Добавлено: 2015-06-10 17:27 (спустя 3 дня)
Кинокомментатор
Аватара пользователя
Стаж: 9 лет 1 месяц
Сообщений: 1332
Лайков: 54
а будет перевод дублированный?)
Не в сети
Профиль  
Начать новую темуОтветить на тему  [ Сообщений: 2 ] 
Вы не можете начинать темы
Вы не можете отвечать на сообщения
Вы не можете редактировать свои сообщения
Вы не можете удалять свои сообщения