Правила форума

  • В этом разделе создание новых тем Запрещено.
  • Для создания новых тем пользуйтесь Корневым разделом DVD и HD фильмы.
Начать новую темуОтветить на тему  [ 1 сообщение ] 
Торрент файл
Размер: 9.94 GB • Зарегистрирован: 2 года 4 месяца • Статус: Проверено
Скачан: 7 раз • Желающих скачать: 0 • Поблагодарили: 1 раз
 Раздают: 0  |  0 KB/s  ]   Качают: 0  |  0 KB/s  ] 
 Полного источника не было 5 месяцев 15 дней 
Сообщения
 Добавлено: 2014-07-15 14:27
Аватара пользователя
Стаж: 3 года 2 месяца
Сообщений: 436
Спасибок: 1063
Лайков: 61
Маленькие шалопаи (негодяи) / The Little Rascals

Изображение


Год выпуска: 1994
Страна: США (Amblin Entertainment, King World Entertainment, Universal Pictures)
Слоган: «Mischief loves company!»
Жанр: комедия, семейный, детский
Продолжительность: 01:22:27
Перевод: MVO (Multi Voice Over / Профессиональный многоголосый)

Режиссёр: Пенелопа Сфирис
Сценарист: Пенелопа Сфирис, Пол Гюэ, Стефен Мазур
Продюсер: Майкл Кинг, Билл Оакес, Марк Аллан
Оператор: Ричард Бауэн
В ролях: Тревис Тедфорд,
Баг Холл,
Бриттани Эштон Холмс,
Мэл Брукс,
Вупи Голдберг,
Дэрил Ханна,
Риба МакИнтайр,
Эшли Олсен,
Мэри-Кейт Олсен,
Кевин Джамал Вудс,
Джордан Варкол
Захари Мэбри,
Росс Бэгли,
Кортленд Мид,
Сэм Салетта,
Блейк Джереми Коллинз,
Блейк МакИвер Юинг
А также Джульетт Брюэр, Лиа Томпсон, Дональд Трамп, Джордж Уэндт
Описание: Мальчики организовали свой клуб настоящих мужчин-женоненавистников. Поэтому любой, кто встречается с девочкой, в их глазах — преступник, предатель и негодяй. Они очень сурово обошлись с одним из членов своего клуба только потому, что тот ходил к девочке на свидания. Девочки, в свою очередь, ничего хорошего в мальчиках тоже найти не могут и предают их суровому осуждению.
Рейтинг MPAA: Рейтинг PG (Детям рекомендуется смотреть фильм с родителями)
Мировая премьера: 15 авг 1997 (USA)
Кассовые сборы: $52 125 282(США); $67 308 282 (В МИРЕ)
Изображение 7.4 (1025) | Изображение 6.2

Качество: BDRip 1080p
Формат: Matroshka (*.MKV)
Видео кодек: x264 AVC
Аудио кодек: AC3 (Dolby Digital)
Видео: 1920x1040, MPEG-4 AVC, 15.0 Mбит/с, 23.976 кадр/с
Аудио #1: Русский (AC3, 2 ch, 192 Кбит/с) |Профессиональный многоголосый (Премьер Видео)|
Аудио #2: Русский (AC3, 2 ch, 192 Кбит/с) |Профессиональный двухголосый (НТВ+)|
Аудио #3: Русский (AC3, 2 ch, 192 Кбит/с) |Авторский одноголосый (Володарский)|
Аудио #4: Русский (AC3, 2 ch, 192 Кбит/с) |Авторский одноголосый (Визгунов)|
Аудио #5: Английский (DTS, 6 ch, 1509 Кбит/с) |Оригинальная звуковая дорожка|
Субтитры: Английские (вшитые)
Media Info
General
Unique ID : 189218040128708170780657162751314465782 (0x8E5A11A6B8A4323D8FA8C8657EA793F6)
Complete name : E:\Видео\Malen'kie.negodyai.1994.BDRip.1080p-MediaClub.mkv
Format : Matroska
Format version : Version 4 / Version 2
File size : 9.94 GiB
Duration : 1h 22mn
Overall bit rate : 17.3 Mbps
Movie name : -=MediaClub-kaspr=-
Encoded date : UTC 2014-06-28 14:53:36
Writing application : mkvmerge v6.9.1 ('Blue Panther') 64bit built on Apr 18 2014 18:23:38
Writing library : libebml v1.3.0 + libmatroska v1.4.1

Video
ID : 1
Format : AVC
Format/Info : Advanced Video Codec
Format profile : High@L4.1
Format settings, CABAC : Yes
Format settings, ReFrames : 4 frames
Codec ID : V_MPEG4/ISO/AVC
Duration : 1h 22mn
Bit rate : 15.0 Mbps
Width : 1 920 pixels
Height : 1 040 pixels
Display aspect ratio : 1.85:1
Frame rate mode : Constant
Frame rate : 23.976 fps
Color space : YUV
Chroma subsampling : 4:2:0
Bit depth : 8 bits
Scan type : Progressive
Bits/(Pixel*Frame) : 0.313
Stream size : 8.43 GiB (85%)
Title : -=MediaClub-kaspr=-
Writing library : x264 core 142 r2431+42 c69a006 tMod [8-bit@4:2:0 X86_64]
Encoding settings : cabac=1 / ref=4 / deblock=1:-3:-3 / analyse=0x3:0x113 / me=umh / subme=11 / psy=1 / fade_compensate=0.00 / psy_rd=1.00:0.20 / mixed_ref=1 / me_range=32 / chroma_me=1 / trellis=2 / 8x8dct=1 / cqm=0 / deadzone=21,11 / fast_pskip=0 / chroma_qp_offset=-3 / threads=12 / lookahead_threads=2 / sliced_threads=0 / nr=0 / decimate=0 / interlaced=0 / bluray_compat=0 / constrained_intra=0 / fgo=0 / bframes=8 / b_pyramid=2 / b_adapt=2 / b_bias=0 / direct=3 / weightb=1 / open_gop=0 / weightp=2 / keyint=240 / keyint_min=23 / scenecut=40 / intra_refresh=0 / rc=2pass / mbtree=0 / bitrate=15000 / ratetol=1.0 / qcomp=0.60 / qpmin=0:0:0 / qpmax=69:69:69 / qpstep=4 / cplxblur=20.0 / qblur=0.5 / ip_ratio=1.40 / pb_ratio=1.30 / aq=4:0.80 / aq-sensitivity=10.00 / aq-factor=1.00:1.00:1.00 / aq2=0 / aq3=0
Language : English
Default : Yes
Forced : No

Audio #1
ID : 2
Format : AC-3
Format/Info : Audio Coding 3
Format profile : Dolby Digital
Mode extension : CM (complete main)
Format settings, Endianness : Big
Codec ID : A_AC3
Duration : 1h 22mn
Bit rate mode : Constant
Bit rate : 192 Kbps
Channel count : 2 channels
Channel positions : Front: L R
Sampling rate : 48.0 KHz
Bit depth : 16 bits
Compression mode : Lossy
Stream size : 113 MiB (1%)
Title : MVO
Language : Russian
Default : Yes
Forced : Yes

Audio #2
ID : 3
Format : AC-3
Format/Info : Audio Coding 3
Format profile : Dolby Digital
Mode extension : CM (complete main)
Format settings, Endianness : Big
Codec ID : A_AC3
Duration : 1h 22mn
Bit rate mode : Constant
Bit rate : 192 Kbps
Channel count : 2 channels
Channel positions : Front: L R
Sampling rate : 48.0 KHz
Bit depth : 16 bits
Compression mode : Lossy
Stream size : 113 MiB (1%)
Title : DVO
Language : Russian
Default : No
Forced : No

Audio #3
ID : 4
Format : AC-3
Format/Info : Audio Coding 3
Format profile : Dolby Digital
Mode extension : CM (complete main)
Format settings, Endianness : Big
Codec ID : A_AC3
Duration : 1h 22mn
Bit rate mode : Constant
Bit rate : 192 Kbps
Channel count : 2 channels
Channel positions : Front: L R
Sampling rate : 48.0 KHz
Bit depth : 16 bits
Compression mode : Lossy
Stream size : 113 MiB (1%)
Title : AVO (Володарский)
Language : Russian
Default : No
Forced : No

Audio #4
ID : 5
Format : AC-3
Format/Info : Audio Coding 3
Format profile : Dolby Digital
Mode extension : CM (complete main)
Format settings, Endianness : Big
Codec ID : A_AC3
Duration : 1h 22mn
Bit rate mode : Constant
Bit rate : 192 Kbps
Channel count : 2 channels
Channel positions : Front: L R
Sampling rate : 48.0 KHz
Bit depth : 16 bits
Compression mode : Lossy
Stream size : 113 MiB (1%)
Title : AVO (Визгунов)
Language : Russian
Default : No
Forced : No

Audio #5
ID : 6
Format : DTS
Format/Info : Digital Theater Systems
Mode : 16
Format settings, Endianness : Big
Codec ID : A_DTS
Duration : 1h 22mn
Bit rate mode : Constant
Bit rate : 1 509 Kbps
Channel count : 5 channels
Channel positions : Front: L C R, Side: L R
Sampling rate : 48.0 KHz
Bit depth : 24 bits
Compression mode : Lossy
Stream size : 890 MiB (9%)
Language : English
Default : No
Forced : No

Text #1
ID : 7
Format : UTF-8
Codec ID : S_TEXT/UTF8
Codec ID/Info : UTF-8 Plain Text
Title : SDH
Language : English
Default : No
Forced : No

Text #2
ID : 8
Format : UTF-8
Codec ID : S_TEXT/UTF8
Codec ID/Info : UTF-8 Plain Text
Title : Full
Language : English
Default : No
Forced : No
Свернуть
Разметка на главы
Menu
00:00:00.000                   : en:Chapter 01
00:04:38.695                   : en:Chapter 02
00:08:00.521                   : en:Chapter 03
00:11:11.545                   : en:Chapter 04
00:12:43.137                   : en:Chapter 05
00:14:25.406                   : en:Chapter 06
00:18:04.750                   : en:Chapter 07
00:19:15.654                   : en:Chapter 08
00:21:43.260                   : en:Chapter 09
00:24:28.800                   : en:Chapter 10
00:26:30.338                   : en:Chapter 11
00:28:05.600                   : en:Chapter 12
00:29:01.197                   : en:Chapter 13
00:30:55.144                   : en:Chapter 14
00:34:28.399                   : en:Chapter 15
00:35:54.026                   : en:Chapter 16
00:39:09.096                   : en:Chapter 17
00:41:21.020                   : en:Chapter 18
00:43:33.694                   : en:Chapter 19
00:44:21.950                   : en:Chapter 20
00:45:04.868                   : en:Chapter 21
00:46:59.191                   : en:Chapter 22
00:48:19.271                   : en:Chapter 23
00:49:42.145                   : en:Chapter 24
00:51:10.525                   : en:Chapter 25
00:52:32.190                   : en:Chapter 26
00:54:27.305                   : en:Chapter 27
00:55:33.121                   : en:Chapter 28
00:58:04.772                   : en:Chapter 29
00:59:01.871                   : en:Chapter 30
01:00:45.141                   : en:Chapter 31
01:04:20.481                   : en:Chapter 32
01:06:02.041                   : en:Chapter 33
01:07:05.771                   : en:Chapter 34
01:08:07.124                   : en:Chapter 35
01:09:04.265                   : en:Chapter 36
01:10:08.245                   : en:Chapter 37
01:11:12.059                   : en:Chapter 38
01:12:59.291                   : en:Chapter 39
01:14:11.905                   : en:Chapter 40
01:16:28.959                   : en:Chapter 41
01:18:44.094                   : en:Chapter 42
Свернуть
Скриншоты
Изображение
Изображение
Изображение
Изображение
Свернуть
Не в сети
Профиль  
Начать новую темуОтветить на тему  [ 1 сообщение ] 
Вы не можете начинать темы
Вы не можете отвечать на сообщения
Вы не можете редактировать свои сообщения
Вы не можете удалять свои сообщения