Правила форума

  • В этом разделе создание новых тем Запрещено.
  • Для создания новых тем пользуйтесь Корневым разделом DVD и HD фильмы.
Начать новую темуОтветить на тему  [ Сообщений: 2 ] 
Торрент файл
Размер: 3.25 GB • Зарегистрирован: 3 года 4 месяца • Статус: Проверено
Скачан: 59 раз • Желающих скачать: 0 • Поблагодарили: 21 раз
 Раздают: 0  |  0 KB/s  ]   Качают: 0  |  0 KB/s  ] 
 Полного источника не было 2 года 
Сообщения
 Добавлено: 2013-07-18 21:16
Аватара пользователя
Стаж: 7 лет 2 месяца
Сообщений: 7167
Спасибок: 82015
Лайков: 2438
Маленькие смерти / Little Deaths

«Experimentation ... Revenge ... All Part of Life's Twisted Games ...»

Изображение


Год выпуска: 2010
Страна: Великобритания
Жанр: ужасы, триллер
Продолжительность: 01:34:23
Перевод: Профессиональный (многоголосый закадровый)

Режиссёр: Шон Хоган, Эндрю Паркинсон
В ролях: Кристофер Фэйрбэнк, Дэниэл Броклбэнк, Эми Хатингс, Люк Де Лэйси, Скот Эшли, Майк Энфилд, Джеймс Аннибали, Кейт Брейтуэйт, Томми Кэри, Эррол Кларк, Брендан Грегори, Холли Лукас
Описание: Фильм о трех историях, объединенных двойной темой секса и смерти. Первая история о молодой парочке, которая заходит слишком далеко в своих ролевых играх, основанных на принципах садомазохизма, вторая о том, как проститутка и наркоманка Джен стала жертвой эксперимента своего лечащего врача, возомнившего себя эсесовским садистом. Третья о семейной парочке, заманивающей в свой дом бездомных детей (ради христианского очищения) и использующих их в своих сексуальных играх. На их беду, последняя жертва оказывается вовсе не мясом для бойни, но охотником, желающим поиграть со своими мучителями.


Качество: BDRip 720p
Формат: MKV
Видео кодек: H264 (AVC)
Аудио кодек: AC3 (Dolby Digital)
Видео: 1 280x542, 23.976 fps, 4 545 Kbps
Аудио #1: 48.0 KHz, 6 ch, 384 Kbps [Профессиональный (многоголосый закадровый)] Лицензия
Изображение
Скриншоты
Изображение

Изображение

Изображение

Изображение

Изображение

Изображение
Свернуть
MI
General
Unique ID : 181366578294482001267954619175208156904 (0x8871EEB21564466E9E219F1687FAFEE8)
Complete name : Маленькие смерти.2010.mkv
Format : Matroska
Format version : Version 2
File size : 3.25 GiB
Duration : 1h 34mn
Overall bit rate : 4 908 Kbps
Encoded date : UTC 2013-07-12 19:32:06
Writing application : mkvmerge v5.0.1 ('Es ist Sommer') built on Oct 24 2011 19:45:06
Writing library : libebml v1.2.2 + libmatroska v1.3.0

Video
ID : 1
Format : AVC
Format/Info : Advanced Video Codec
Format profile : High@L4.1
Format settings, CABAC : Yes
Format settings, ReFrames : 10 frames
Codec ID : V_MPEG4/ISO/AVC
Duration : 1h 34mn
Bit rate : 4 545 Kbps
Width : 1 280 pixels
Height : 542 pixels
Display aspect ratio : 2.35:1
Frame rate : 24.000 fps
Color space : YUV
Chroma subsampling : 4:2:0
Bit depth : 8 bits
Scan type : Progressive
Bits/(Pixel*Frame) : 0.273
Stream size : 2.93 GiB (90%)
Title : hahay0yo@CHD
Writing library : x264 core 122 r2184 5c85e0a
Encoding settings : cabac=1 / ref=10 / deblock=1:-3:-3 / analyse=0x3:0x113 / me=umh / subme=10 / psy=1 / psy_rd=1.10:0.10 / mixed_ref=1 / me_range=32 / chroma_me=1 / trellis=2 / 8x8dct=1 / cqm=0 / deadzone=21,11 / fast_pskip=0 / chroma_qp_offset=-2 / threads=12 / sliced_threads=0 / nr=0 / decimate=1 / interlaced=0 / bluray_compat=0 / constrained_intra=0 / bframes=6 / b_pyramid=2 / b_adapt=2 / b_bias=0 / direct=3 / weightb=1 / open_gop=0 / weightp=2 / keyint=250 / keyint_min=24 / scenecut=40 / intra_refresh=0 / rc_lookahead=60 / rc=2pass / mbtree=0 / bitrate=4545 / ratetol=1.0 / qcomp=0.60 / qpmin=0 / qpmax=69 / qpstep=4 / cplxblur=20.0 / qblur=0.5 / vbv_maxrate=40000 / vbv_bufsize=40000 / nal_hrd=none / ip_ratio=1.40 / pb_ratio=1.30 / aq=1:0.90
Language : English
Default : Yes
Forced : No

Audio
ID : 2
Format : AC-3
Format/Info : Audio Coding 3
Mode extension : CM (complete main)
Format settings, Endianness : Big
Codec ID : A_AC3
Duration : 1h 34mn
Bit rate mode : Constant
Bit rate : 384 Kbps
Channel(s) : 6 channels
Channel positions : Front: L C R, Side: L R, LFE
Sampling rate : 48.0 KHz
Bit depth : 16 bits
Compression mode : Lossy
Delay relative to video : 7s 306ms
Stream size : 260 MiB (8%)
Default : Yes
Forced : No


Свернуть
 rotametr нравится это.
Не в сети
Профиль  
 Добавлено: 2013-07-18 23:04 (спустя 1 час 48 минут)
Стаж: 3 года 11 месяцев
Сообщений: 30
Спасибо.Заценим.
Не в сети
Профиль  
Начать новую темуОтветить на тему  [ Сообщений: 2 ] 
Вы не можете начинать темы
Вы не можете отвечать на сообщения
Вы не можете редактировать свои сообщения
Вы не можете удалять свои сообщения