Правила форума

  • В этом разделе создание новых тем Запрещено.
  • Для создания новых тем пользуйтесь Корневым разделом DVD и HD фильмы.
Начать новую темуОтветить на тему  [ 1 сообщение ] 
Торрент файл
Размер: 7.43 GB • Зарегистрирован: 3 года • Статус: Проверено
Скачан: 12 раз • Желающих скачать: 0 • Поблагодарили: 8 раз
 Раздают: 0  |  0 KB/s  ]   Качают: 0  |  0 KB/s  ] 
 Полного источника не было 50 минут 
Сообщения
 Добавлено: 2013-11-23 19:12
Модератор релиз-группы
Аватара пользователя
Стаж: 7 лет 8 месяцев
Возраст: 29
Сообщений: 9789
Спасибок: 23729
Лайков: 103
Изображение

Мамма MIA!
Mamma Mia!


Год выпуска: 2008
Страна: США, Великобритания, Германия
Слоган: «Добро пожаловать под венец»
Жанр: мюзикл, мелодрама, комедия
Продолжительность: 01:48:38
Перевод: Профессиональный (полное дублирование)
Режиссер: Филлида Ллойд
Сценарий: Кэтрин Джонсон
Продюсер: Джуди Креймер, Гари Гоэцман, Бенни Андерссон, Том Хэнкс, Марк Хаффам
Оператор: Харис Замбарлукос
Композитор: Бенни Андерссон
В ролях: Аманда Сайфред, Мэрил Стрип, Пирс Броснан, Стеллан Скарсгард, Колин Фёрт, Джули Уолтерс, Кристин Барански, Рэйчел МакДауэлл, Эшли Лиллей, Доминик Купер, Филип Майкл, Нэнси Болдуин
Бюджет: $52 000 000
Сборы в США: $144 130 063
Сборы в России: $9 353 200
Сборы в мире: $609 841 637
Мировая премьера: 30 июня 2008
Релиз на DVD: 25 ноября 2008, «Юниверсал Пикчерс Рус»
Релиз на Blu-ray: 9 декабря 2008, «Юниверсал Пикчерс Рус»
Описание: Молодая девушка Софи собирается выйти замуж и мечтает о том, чтобы церемония прошла по всем правилам. Она хочет пригласить на свадьбу своего отца, чтобы он отвел ее к алтарю. Но она не знает, кто он, так как ее мать Донна никогда не рассказывала о нем.
Софи находит дневник матери, в котором та описывает отношения с тремя мужчинами. Софи решает отправить приглашения всем троим! Все самое интересное начинает происходить, когда на свадьбу приезжают гости...


Изображение User Rating: 7.288 (32 597)
Изображение User Rating: 6.30 (90 634)
MPAA: PG-13 - Детям до 13 лет просмотр не желателен
Раздача группы: Изображение
Качество: BDRip, 1080p
Формат: MKV
Видео: AVC; 1920x800 (2.40:1); 8768 Kbps; 23,976 fps; 0,238 bit/pixel
Аудио №1: русский; AC3; 384 Kbps; CBR; 6 ch
Аудио №2: английский; AC3; 448 Kbps; CBR; 6 ch

Субтитры №1: русские
Субтитры №2: английские
Субтитры №3: Dutch

mediainfo
Общее
Уникальный идентификатор : 201356032971917954973536169838296376250 (0x977BC2E7122EBB46819388C9134323BA)
Полное имя : D:\TORRENT\Mamma.Mia.[R.G.Daredevil].mkv
Формат : Matroska
Размер файла : 7,43 Гбайт
Продолжительность : 1 ч. 48 м.
Общий поток : 9796 Кбит/сек
Дата кодирования : UTC 2008-11-30 01:45:54
Программа кодирования : mkvmerge v2.1.0 ('Another Place To Fall') built on Aug 19 2007 13:40:07
Библиотека кодирования : libebml v0.7.7 + libmatroska v0.8.1

Видео
Идентификатор : 1
Формат : AVC
Формат/Информация : Advanced Video Codec
Профиль формата : High@L4.1
Параметр CABAC формата : Да
Параметр ReFrames формата : 4 кадра
Параметры GOP формата : N=1
Идентификатор кодека : V_MPEG4/ISO/AVC
Продолжительность : 1 ч. 48 м.
Битрейт : 8960 Кбит/сек
Ширина : 1920 пикс.
Высота : 800 пикс.
Соотношение сторон : 2,40:1
Частота кадров : 23,976 кадр/сек
Цветовое пространство : YUV
Подвыборка цветности : 4:2:0
Битовая глубина : 8 бит
Тип развёртки : Прогрессивная
Бит/(Пиксели*Кадры) : 0.243
Размер потока : 6,65 Гбайт (90%)
Библиотека кодирования : x264 core 65 r1028 83baa7f
Настройки программы : cabac=1 / ref=4 / deblock=1:0:0 / analyse=0x3:0x133 / me=umh / subme=7 / psy_rd=1.0:0.0 / mixed_ref=1 / me_range=16 / chroma_me=1 / trellis=1 / 8x8dct=1 / cqm=0 / deadzone=21,11 / chroma_qp_offset=-2 / threads=6 / nr=0 / decimate=1 / mbaff=0 / bframes=3 / b_pyramid=1 / b_adapt=1 / b_bias=0 / direct=1 / wpredb=1 / keyint=250 / keyint_min=25 / scenecut=40(pre) / rc=2pass / bitrate=8960 / ratetol=1.0 / qcomp=0.60 / qpmin=10 / qpmax=51 / qpstep=4 / cplxblur=20.0 / qblur=0.5 / ip_ratio=1.40 / pb_ratio=1.30 / aq=1:1.00

Аудио #1
Идентификатор : 2
Формат : AC-3
Формат/Информация : Audio Coding 3
Расширение режима : CM (complete main)
Идентификатор кодека : A_AC3
Продолжительность : 1 ч. 48 м.
Вид битрейта : Постоянный
Битрейт : 384 Кбит/сек
Каналы : 6 каналов
Расположение каналов : Front: L C R, Side: L R, LFE
Частота : 48,0 КГц
Битовая глубина : 16 бит
Метод сжатия : С потерями
Размер потока : 298 Мбайт (4%)
Язык : Russian

Аудио #2
Идентификатор : 3
Формат : AC-3
Формат/Информация : Audio Coding 3
Расширение режима : CM (complete main)
Идентификатор кодека : A_AC3
Продолжительность : 1 ч. 48 м.
Вид битрейта : Постоянный
Битрейт : 448 Кбит/сек
Каналы : 6 каналов
Расположение каналов : Front: L C R, Side: L R, LFE
Частота : 48,0 КГц
Битовая глубина : 16 бит
Метод сжатия : С потерями
Размер потока : 348 Мбайт (5%)
Язык : English

Текст #1
Идентификатор : 4
Формат : VobSub
Режим смешивания : zlib
Идентификатор кодека : S_VOBSUB
Идентификатор кодека/Информация : The same subtitle format used on DVDs
Язык : Russian

Текст #2
Идентификатор : 5
Формат : UTF-8
Идентификатор кодека : S_TEXT/UTF8
Идентификатор кодека/Информация : UTF-8 Plain Text
Язык : English

Текст #3
Идентификатор : 6
Формат : UTF-8
Идентификатор кодека : S_TEXT/UTF8
Идентификатор кодека/Информация : UTF-8 Plain Text
Язык : Dutch


Свернуть
"Знаете ли Вы, что..."
  • Съёмки фильма проходили в Лондоне и Греции.
  • Своего тезку, Билла, должен был играть Билл Найи, но перед самым началом съемок актер покинул проект. Его место занял Стеллан Скарсгард.
  • Фильм является экранизацией одноимённого мюзикла, основанного на песнях знаменитой шведской группы ABBA, который с большим успехом идет во всем мире.
  • Это дебют Филлиды Ллойд в большом кино, до этого она работала над театральными и телевизионными постановками.
  • Сценарий картины написала Катрин Джонсон, одна из создательниц оригинального мюзикла.
  • Премьеру «Мамма MIA!» в Стокгольме посетили все четверо участников легендарного квартета - Анни-Фрид Лингстад, Агнета Фальтског, Бенни Андерссон и Бьорн Ульвеус.
  • По словам Мэрил Стрип, она мечтала петь со школы, поэтому почти сразу же дала согласие на участие. Погрузиться в атмосферу песен «АББА» для неё было все равно, что «вернуться в старый любимый дом».
  • Главное отличие фильма от мюзикла - количество песен ABBA. В мюзикле их 22, в фильме всего 19.
  • На роль Софи претендовали Мэнди Мур, Аманда Байнс, Рейчел МакАдамс, Эми Россум.
  • Было снято две версии фильма - одна с актёрами мюзикла, вторая - со звёздами кино.
  • Участники ABBA, продюсеры фильма Бьорн Ульвеус и Бенни Андерсон записали инструментальную составляющую песен и консультировали музыкального режиссера постановки Мартина Лоу.
  • В качестве хора были приглашены актеры, играющие в шведской постановке мюзикла «MAMMA MIA!».
  • В начале фильма на яхте героя Стеллана Скарсгарда можно заметить шведский флаг. Это отсылка к тому, что группа «ABBA», по песням которой поставлен мюзикл родом из Швеции.
  • Звук для музыкальных сцен записывался прямо на съемочной площадке во время дубля, а не как обычно, в студии после съемок.
  • Во время исполнения песни «Dancing queen» (0:37:56) в фильме появляется Бенни Андерссон, а в финале во время исполнения «Waterloo» (1:39:09) в компании греческих богов появляется Бьёрн Ульвеус, участники группы АББА.
  • В театральной версии мюзикла Билл Андерсон, которого играет Скарскард, носит фамилию Остин.
  • еще 13 фактов
Свернуть
Скриншоты

Изображение
Изображение
Изображение
Изображение
Изображение
Изображение
Изображение
Изображение
Свернуть


Тема поднималась пользователем volkov2009 2013-11-23 19:12.
Не в сети
Профиль  
Начать новую темуОтветить на тему  [ 1 сообщение ] 
Вы не можете начинать темы
Вы не можете отвечать на сообщения
Вы не можете редактировать свои сообщения
Вы не можете удалять свои сообщения