Правила форума

  • В этом разделе создание новых тем Запрещено.
  • Для создания новых тем пользуйтесь Корневым разделом DVD и HD фильмы.
Начать новую темуОтветить на тему  [ Сообщений: 4 ] 
Торрент файл
Размер: 9.38 GB • Зарегистрирован: 3 года 7 месяцев • Статус: Проверено
Скачан: 121 раз • Желающих скачать: 0 • Поблагодарили: 35 раз
 Раздают: 0  |  0 KB/s  ]   Качают: 0  |  0 KB/s  ] 
 Полного источника не было 2 года 6 месяцев 
Сообщения
 Добавлено: 2013-04-27 11:46
Аватара пользователя
Стаж: 9 лет 1 месяц
Сообщений: 7912
Спасибок: 122098
Лайков: 1190
Маньяк / Maniac

«Охота началась!»

Изображение


Год выпуска: 2012
Страна: Изображение Франция Изображение США
Жанр: ужасы, триллер, криминал
Продолжительность: 01:25:16
Перевод: Профессиональный (полное дублирование) [Лицензия]


Режиссёр: Франк Халфун
Сценарист: Александр Ажа, Грегори Левассёр, С.А. Розенберг
Продюсер: Александр Ажа, Тома Лангманн, Грегори Левассёр
Оператор: Максим Александр
Композитор: Роб

В ролях: Элайджа Вуд, Нора Арнезедер, Сэмми Ротиби, Меган Даффи, Америка Оливо, Лиэн Балабан, Джен Броберг, Брайан Амес, Сэл Ланди, Женевьев Александра

Описание: Улицы Лос-Анджелеса кажутся тихими и безопасными, но это не так. Серийный убийца, снимающий скальпы со своих жертв вновь выходит на охоту. Днем, Фрэнк — тихий владелец мастерской по реставрации манекенов, а ночью — безжалостный маньяк, убивающий исключительно женщин. Но его размеренная жизнь тихони-маньяка меняется, когда в ней появляется молодая фото-художница Анна, которой нужна его помощь в проведении выставки. Чем дальше развиваются их отношения, тем сложнее становится Фрэнку сделать выбор — ещё один скальп в качестве трофея или реальная любовь.

Изображение Изображение

Раздача группы: Изображение

Качество: BDRip (1080p)
Формат: Matroska
Видео: MPEG-4 AVC, 12.9 Мбит/с, 1920x804
Аудио №1: Русский (AC3, 48,0 КГц, 6 ch, 448 Кбит/c)
Аудио №2: Английский (DTS, 48,0 КГц, 6 ch, 1510 Кбит/c)

MediaInfo
Общее
Уникальный идентификатор : 209602149176111505215799677002919878504 (0x9DAFE7D22A56FFF79528B2089BB29F68)
Полное имя : C:\Фильмы\Maniac.2012.BDRip.1080p.R.G.Daredevil.mkv
Формат : Matroska
Версия формата : Version 4 / Version 2
Размер файла : 9,38 Гбайт
Продолжительность : 1 ч. 28 м.
Общий поток : 15,1 Мбит/сек
Дата кодирования : UTC 2013-04-28 07:28:29
Программа кодирования : mkvmerge v6.1.0 ('Old Devil') built on Mar 2 2013 14:32:37
Библиотека кодирования : libebml v1.3.0 + libmatroska v1.4.0

Видео
Идентификатор : 1
Формат : AVC
Формат/Информация : Advanced Video Codec
Профиль формата : High@L4.1
Параметр CABAC формата : Да
Параметр ReFrames формата : 5 кадров
Идентификатор кодека : V_MPEG4/ISO/AVC
Продолжительность : 1 ч. 28 м.
Битрейт : 12,9 Мбит/сек
Ширина : 1920 пикселей
Высота : 804 пикселя
Соотношение сторон : 2,40:1
Режим частоты кадров : Постоянный
Частота кадров : 24,000 кадра/сек
Цветовое пространство : YUV
Субдискретизация насыщенности : 4:2:0
Битовая глубина : 8 бит
Тип развёртки : Прогрессивная
Бит/(Пиксели*Кадры) : 0.347
Размер потока : 7,98 Гбайт (85%)
Библиотека кодирования : x264 core 130 r2274+704+40 24c804d tMod+MixAQ [8-bit@4:2:0 X86_64]
Настройки программы : cabac=1 / ref=5 / deblock=1:-3:-3 / analyse=0x3:0x113 / me=umh / subme=11 / psy=1 / fade_compensate=0.00 / psy_rd=1.05:0.00 / mixed_ref=1 / me_range=48 / chroma_me=1 / trellis=2 / 8x8dct=1 / cqm=0 / deadzone=21,11 / fast_pskip=0 / chroma_qp_offset=-2 / threads=36 / lookahead_threads=6 / sliced_threads=0 / nr=0 / decimate=0 / interlaced=0 / bluray_compat=0 / constrained_intra=0 / fgo=0 / bframes=8 / b_pyramid=2 / b_adapt=2 / b_bias=0 / direct=3 / weightb=1 / open_gop=0 / weightp=2 / keyint=240 / keyint_min=24 / scenecut=40 / intra_refresh=0 / rc=crf / mbtree=0 / crf=18.0000 / qcomp=0.72 / qpmin=0 / qpmax=69 / qpstep=4 / ip_ratio=1.25 / pb_ratio=1.20 / aq=4:0.90 / aq-sensitivity=10.00 / aq-ifactor=1.00 / aq-pfactor=1.00 / aq-bfactor=1.00 / aq2=0
Язык : English
Default : Да
Forced : Нет

Аудио #1
Идентификатор : 2
Формат : AC-3
Формат/Информация : Audio Coding 3
Расширение режима : CM (complete main)
Параметр Endianness формата : Big
Идентификатор кодека : A_AC3
Продолжительность : 1 ч. 28 м.
Вид битрейта : Постоянный
Битрейт : 448 Кбит/сек
Каналы : 6 каналов
Расположение каналов : Front: L C R, Side: L R, LFE
Частота : 48,0 КГц
Битовая глубина : 16 бит
Метод сжатия : С потерями
Размер потока : 285 Мбайт (3%)
Язык : Russian
Default : Нет
Forced : Нет

Аудио #2
Идентификатор : 3
Формат : DTS
Формат/Информация : Digital Theater Systems
Режим : 16
Параметр Endianness формата : Big
Идентификатор кодека : A_DTS
Продолжительность : 1 ч. 28 м.
Вид битрейта : Постоянный
Битрейт : 1509 Кбит/сек
Каналы : 6 каналов
Расположение каналов : Front: L C R, Side: L R, LFE
Частота : 48,0 КГц
Битовая глубина : 16 бит
Метод сжатия : С потерями
Размер потока : 959 Мбайт (10%)
Язык : English
Default : Да
Forced : Нет
Свернуть
Скриншоты
Изображение
Изображение
Изображение
Свернуть


Последний раз редактировалось krazz 2013-04-28 15:24, всего редактировалось 1 раз.
Не в сети
Профиль  
 Добавлено: 2013-04-28 13:54 (спустя 1 день 2 часа)
Аватара пользователя
Стаж: 7 лет 8 месяцев
Сообщений: 206
Фильм так себе на троечку, один раз посмотреть можно... что то в нём не хватило, что бы держать в напряжении, да и актёры так себе!!! Автору за релиз СПАСИБО!!!
Не в сети
Профиль  
 Добавлено: 2013-04-28 14:16 (спустя 22 минуты)
Стаж: 6 лет 5 месяцев
Сообщений: 175
Лайков: 2
Да Фродо. Как сгубила прелесть, кто ему сунул этот сценарий ужас.
Не в сети
Профиль  
 Добавлено: 2013-04-28 15:27 (спустя 1 час 10 минут)
Аватара пользователя
Стаж: 9 лет 1 месяц
Сообщений: 7912
Спасибок: 122098
Лайков: 1190
Торрент обновлен, рип заменен на более качественный
Не в сети
Профиль  
Начать новую темуОтветить на тему  [ Сообщений: 4 ] 
Вы не можете начинать темы
Вы не можете отвечать на сообщения
Вы не можете редактировать свои сообщения
Вы не можете удалять свои сообщения