Правила форума

  • В этом разделе создание новых тем Запрещено.
  • Для создания новых тем пользуйтесь Корневым разделом DVD и HD фильмы.
Начать новую темуОтветить на тему  [ Сообщений: 2 ] 
Торрент файл
Размер: 6.54 GB • Зарегистрирован: 4 года 5 месяцев • Статус: Проверено
Скачан: 22 раза • Желающих скачать: 0 • Поблагодарили: 8 раз
 Раздают: 0  |  0 KB/s  ]   Качают: 0  |  0 KB/s  ] 
 Полного источника не было 3 года 2 месяца 
Сообщения
 Добавлено: 2012-06-10 14:05
Модератор релиз-группы
Аватара пользователя
Стаж: 6 лет 5 месяцев
Возраст: 25
Сообщений: 622
Спасибок: 10257
Лайков: 7
Маппеты / The Muppets

Изображение


Год выпуска: 2011
Страна: США, Walt Disney Pictures
Жанр: мюзикл, комедия, семейный
Продолжительность: 01:42:44
Перевод: Профессиональный (полное дублирование) [Лицензия]

Режиссёр: Джеймс Бобин
В ролях: Джейсон Сигел, Эми Адамс, Джек Блэк, Зак Галифианакис, Кен Жонг, Эмили Блант, Вупи Голдберг, Селена Гомес, Крис Купер, Эрик Джейкобсон, Дэйв Гольц, Билл Барретта
Описание: Сюжет объединяет потрепанных кукол для финального шоу, которое призвано спасти киностудию от разорения.
Релиз: Изображение

Качество: BDRip, 720p
Формат: Matroska
Видео: 5456 Kb/s, 1280x720
Аудио #1: Russian: AC3, 640 Kb/s (6 ch)
Аудио #2: Russian: DTS, 1510 Kb/s (6 ch)
Аудио #3: English: DTS, 1510 Kb/s (6 ch)
MediaInfo
Общее
Уникальный идентификатор : 174198535689869513745504457322675032947 (0x830D6AE8D6FAB7BDB98F9D501007D373)
Формат : Matroska
Версия формата : Version 2
Размер файла : 6,54 Гбайт
Продолжительность : 1 ч. 42 м.
Общий поток : 9114 Кбит/сек
Название фильма : uniongang.tv
Дата кодирования : UTC 2012-06-10 07:52:48
Программа кодирования : mkvmerge v5.2.0 ('I can't explain') built on Dec 18 2011 18:12:03
Библиотека кодирования : libebml v1.2.3 + libmatroska v1.3.0

Видео
Идентификатор : 1
Формат : AVC
Формат/Информация : Advanced Video Codec
Профиль формата : High@L4.1
Параметр CABAC формата : Да
Параметр ReFrames формата : 8 кадров
Идентификатор кодека : V_MPEG4/ISO/AVC
Продолжительность : 1 ч. 42 м.
Битрейт : 5456 Кбит/сек
Ширина : 1280 пикселей
Высота : 720 пикселей
Соотношение сторон : 16:9
Частота кадров : 23,976 кадра/сек
Цветовое пространство : YUV
Субдискретизация насыщенности : 4:2:0
Битовая глубина : 8 бит
Тип развёртки : Прогрессивная
Бит/(Пиксели*Кадры) : 0.247
Размер потока : 3,78 Гбайт (58%)
Заголовок : Маппеты / The Muppets (2011)
Библиотека кодирования : x264 core 120 r2146 bcd41db
Настройки программы : cabac=1 / ref=8 / deblock=1:-3:-3 / analyse=0x3:0x113 / me=umh / subme=10 / psy=1 / psy_rd=1.00:0.05 / mixed_ref=1 / me_range=32 / chroma_me=1 / trellis=2 / 8x8dct=1 / cqm=0 / deadzone=21,11 / fast_pskip=0 / chroma_qp_offset=-2 / threads=8 / sliced_threads=0 / nr=0 / decimate=1 / interlaced=0 / bluray_compat=0 / constrained_intra=0 / bframes=5 / b_pyramid=2 / b_adapt=2 / b_bias=0 / direct=3 / weightb=1 / open_gop=0 / weightp=2 / keyint=250 / keyint_min=23 / scenecut=40 / intra_refresh=0 / rc_lookahead=40 / rc=2pass / mbtree=0 / bitrate=5456 / ratetol=1.0 / qcomp=0.70 / qpmin=0 / qpmax=69 / qpstep=4 / cplxblur=20.0 / qblur=0.5 / vbv_maxrate=40000 / vbv_bufsize=30000 / nal_hrd=none / ip_ratio=1.40 / pb_ratio=1.30 / aq=2:0.80
Язык : English
Default : Да
Forced : Нет

Аудио #1
Идентификатор : 2
Формат : AC-3
Формат/Информация : Audio Coding 3
Расширение режима : CM (complete main)
Параметр Endianness формата : Big
Идентификатор кодека : A_AC3
Продолжительность : 1 ч. 42 м.
Вид битрейта : Постоянный
Битрейт : 640 Кбит/сек
Каналы : 6 каналов
Расположение каналов : Front: L C R, Side: L R, LFE
Частота : 48,0 КГц
Битовая глубина : 16 бит
Метод сжатия : С потерями
Размер потока : 470 Мбайт (7%)
Заголовок : Dubbed [DD 5.1@640kbps/16-bit]
Язык : Russian
Default : Да
Forced : Нет

Аудио #2
Идентификатор : 3
Формат : DTS
Формат/Информация : Digital Theater Systems
Идентификатор кодека : A_DTS
Продолжительность : 1 ч. 42 м.
Вид битрейта : Постоянный
Битрейт : 1510 Кбит/сек
Каналы : 6 каналов
Расположение каналов : Front: L C R, Side: L R, LFE
Частота : 48,0 КГц
Битовая глубина : 24 бит
Метод сжатия : С потерями
Размер потока : 1,08 Гбайт (17%)
Заголовок : AVO Serbin [DTS 5.1@1509kbps/24-bit]
Язык : Russian
Default : Нет
Forced : Нет

Аудио #3
Идентификатор : 4
Формат : DTS
Формат/Информация : Digital Theater Systems
Идентификатор кодека : A_DTS
Продолжительность : 1 ч. 42 м.
Вид битрейта : Постоянный
Битрейт : 1510 Кбит/сек
Каналы : 6 каналов
Расположение каналов : Front: L C R, Side: L R, LFE
Частота : 48,0 КГц
Битовая глубина : 24 бит
Метод сжатия : С потерями
Размер потока : 1,08 Гбайт (17%)
Заголовок : Original [DTS 5.1@1509kbps/24-bit]
Язык : English
Default : Нет
Forced : Нет

Текст #1
Идентификатор : 5
Формат : UTF-8
Идентификатор кодека : S_TEXT/UTF8
Идентификатор кодека/Информация : UTF-8 Plain Text
Заголовок : -=inscriptions=-
Язык : Russian
Default : Да
Forced : Нет

Текст #2
Идентификатор : 6
Формат : UTF-8
Идентификатор кодека : S_TEXT/UTF8
Идентификатор кодека/Информация : UTF-8 Plain Text
Заголовок : full
Язык : Russian
Default : Нет
Forced : Нет

Текст #3
Идентификатор : 7
Формат : UTF-8
Идентификатор кодека : S_TEXT/UTF8
Идентификатор кодека/Информация : UTF-8 Plain Text
Заголовок : forsed with songs
Язык : Russian
Default : Нет
Forced : Нет

Текст #4
Идентификатор : 8
Формат : UTF-8
Идентификатор кодека : S_TEXT/UTF8
Идентификатор кодека/Информация : UTF-8 Plain Text
Заголовок : full
Язык : English
Default : Нет
Forced : Нет

Текст #5
Идентификатор : 9
Формат : UTF-8
Идентификатор кодека : S_TEXT/UTF8
Идентификатор кодека/Информация : UTF-8 Plain Text
Заголовок : SDN
Язык : English
Default : Нет
Forced : Нет

Текст #6
Идентификатор : 10
Формат : UTF-8
Идентификатор кодека : S_TEXT/UTF8
Идентификатор кодека/Информация : UTF-8 Plain Text
Заголовок : Styled
Язык : English
Default : Нет
Forced : Нет

Меню
00:00:00.000 : en:00:00:00.000
00:04:11.584 : en:00:04:11.584
00:10:55.905 : en:00:10:55.905
00:16:23.899 : en:00:16:23.899
00:24:28.300 : en:00:24:28.300
00:33:47.900 : en:00:33:47.900
00:39:57.019 : en:00:39:57.019
00:42:17.910 : en:00:42:17.910
00:48:49.426 : en:00:48:49.426
00:55:22.360 : en:00:55:22.360
00:59:06.626 : en:00:59:06.626
01:02:40.381 : en:01:02:40.381
01:05:53.908 : en:01:05:53.908
01:10:50.704 : en:01:10:50.704
01:14:22.040 : en:01:14:22.040
01:19:45.071 : en:01:19:45.071
01:24:40.992 : en:01:24:40.992
01:28:12.078 : en:01:28:12.078
01:32:15.112 : en:01:32:15.112
01:36:31.285 : en:01:36:31.285
01:38:02.960 : en:01:38:02.960
Свернуть

Скриншоты
Изображение
Изображение
Изображение
Изображение
Свернуть
_________________
Изображение
Не в сети
Профиль  
 Добавлено: 2012-06-11 16:24 (спустя 1 день 2 часа)
Стаж: 8 лет 10 месяцев
Сообщений: 172
1080 когда будет кто вкурсе?
Не в сети
Профиль  
Начать новую темуОтветить на тему  [ Сообщений: 2 ] 
Вы не можете начинать темы
Вы не можете отвечать на сообщения
Вы не можете редактировать свои сообщения
Вы не можете удалять свои сообщения