Правила форума

  • В этом разделе создание новых тем Запрещено.
  • Для создания новых тем пользуйтесь Корневым разделом DVD и HD фильмы.
Начать новую темуОтветить на тему  [ 1 сообщение ] 
Торрент файл
Размер: 5.84 GB • Зарегистрирован: 2 года 7 месяцев • Статус: T Временный релиз
Скачан: 11 раз • Желающих скачать: 0 • Поблагодарили: 4 раза
 Раздают: 0  |  0 KB/s  ]   Качают: 0  |  0 KB/s  ] 
 Полного источника не было 8 месяцев 
Сообщения
 Добавлено: 2014-04-26 19:16
Аватара пользователя
Стаж: 8 лет 3 месяца
Возраст: 29
Сообщений: 234
Спасибок: 1724
Лайков: 11
Изображение
Марина / Marina


Год выпуска: 2013
Жанр: драма, романтика, биография, музыка
Режиссер: Стиин Конинкс
В ролях: Маттео Симони, Эвелин Босманс, Луиджи Ло Кашио, Донателла Финокьяро, Варре Боргманс, Крис ван ден Дюрпел, Рокко Граната

О фильме:
После окончания Второй Мировой войны отец вместе с 10-летним сыном Рокко вынуждены покинуть родную Калабрию и поехать в Бельгию. Там, как считает отец, их ждет лучшая жизнь. В Бельгии отцу приходится по многу и тяжело трудится, чтобы осуществить свою мечту, с которой он делится с сыном: вернуться на Родину, но уже богатыми и успешными людьми. Он хочет, чтобы сын также следовал этой мечте. У парня есть незаурядный музыкальный талант, и он мечтает выступать на сцене, но его родители и слушать не хотят о такой карьере.. В основу фильма положена реальная история Рокко Граната - популярного в Италии певца.

ИзображениеИзображение

Выпущено: Бельгия
Продолжительность: 02:02:55
Озвучивание: Любительское (одноголосое) [Pashaup]

Файл
Формат: MKV
Качество: BDRip 720p [VeDeTT]
Видео: 5111 kb/s, 1280x536, AVC
Аудио: Russian: AC3, 448 kb/s (6 ch) / Dutch: DTS, 1510 kb/s (6 ch)
Субтитры: Russian [Antonio], English
Дополнительно: Сохранены оригинальные чаптеры как на Blu-Ray
Размер: 5.84 GB
Скачать:Сэмпл

Релиз группы:Изображение

"Скриншоты"
Изображение

Изображение

Изображение

Изображение

Свернуть

"NFO"
Общее
Marina.2013.Blu.Ray.720p.CINEMANIA.mkv
Формат : Matroska
Версия формата : Version 4 / Version 2
Размер файла : 5,84 Гбайт
Продолжительность : 2 ч. 2 м.
Общий поток : 6802 Кбит/сек
Название фильма : Release Group CINEMANIA
Дата кодирования : UTC 2014-04-26 13:17:48
Программа кодирования : mkvmerge v6.9.1 ('Blue Panther') 64bit built on Apr 18 2014 18:23:38
Библиотека кодирования : libebml v1.3.0 + libmatroska v1.4.1

Видео
Идентификатор : 1
Формат : AVC
Формат/Информация : Advanced Video Codec
Профиль формата : [email protected]/* */
Параметр CABAC формата : Да
Параметр ReFrames формата : 5 кадров
Идентификатор кодека : V_MPEG4/ISO/AVC
Продолжительность : 2 ч. 2 м.
Битрейт : 5111 Кбит/сек
Ширина : 1280 пикселей
Высота : 536 пикселей
Соотношение сторон : 2,40:1
Режим частоты кадров : Постоянный
Частота кадров : 23,976 кадра/сек
Цветовое пространство : YUV
Субдискретизация насыщенности : 4:2:0
Битовая глубина : 8 бит
Тип развёртки : Прогрессивная
Бит/(Пиксели*Кадры) : 0.295
Размер потока : 4,04 Гбайт (69%)
Заголовок : Release Group CINEMANIA
Библиотека кодирования : x264 core 142 r2409 d6b4e63
Настройки программы : cabac=1 / ref=5 / deblock=1:0:0 / analyse=0x3:0x133 / me=umh / subme=7 / psy=1 / psy_rd=1.00:0.00 / mixed_ref=1 / me_range=16 / chroma_me=1 / trellis=1 / 8x8dct=1 / cqm=0 / deadzone=21,11 / fast_pskip=0 / chroma_qp_offset=-2 / threads=6 / lookahead_threads=1 / sliced_threads=0 / nr=0 / decimate=1 / interlaced=0 / bluray_compat=0 / constrained_intra=0 / bframes=3 / b_pyramid=2 / b_adapt=2 / b_bias=0 / direct=3 / weightb=1 / open_gop=0 / weightp=2 / keyint=250 / keyint_min=23 / scenecut=40 / intra_refresh=0 / rc_lookahead=50 / rc=2pass / mbtree=1 / bitrate=4847 / ratetol=1.0 / qcomp=0.60 / qpmin=0 / qpmax=69 / qpstep=4 / cplxblur=20.0 / qblur=0.5 / ip_ratio=1.40 / aq=1:1.00
Язык : English
Default : Да
Forced : Нет

Аудио #1
Идентификатор : 2
Формат : AC-3
Формат/Информация : Audio Coding 3
Расширение режима : CM (complete main)
Параметр Endianness формата : Big
Идентификатор кодека : A_AC3
Продолжительность : 2 ч. 2 м.
Вид битрейта : Постоянный
Битрейт : 448 Кбит/сек
Каналы : 6 каналов
Расположение каналов : Front: L C R, Side: L R, LFE
Частота : 48,0 КГц
Битовая глубина : 16 бит
Метод сжатия : С потерями
Размер потока : 394 Мбайт (7%)
Заголовок : PashaUp
Язык : Russian
Default : Да
Forced : Да

Аудио #2
Идентификатор : 3
Формат : DTS
Формат/Информация : Digital Theater Systems
Режим : 16
Параметр Endianness формата : Big
Идентификатор кодека : A_DTS
Продолжительность : 2 ч. 2 м.
Вид битрейта : Постоянный
Битрейт : 1509 Кбит/сек
Каналы : 6 каналов
Расположение каналов : Front: L C R, Side: L R, LFE
Частота : 48,0 КГц
Битовая глубина : 24 бит
Метод сжатия : С потерями
Размер потока : 1,30 Гбайт (22%)
Язык : Dutch
Default : Нет
Forced : Нет

Текст #1
Идентификатор : 4
Формат : UTF-8
Идентификатор кодека : S_TEXT/UTF8
Идентификатор кодека/Информация : UTF-8 Plain Text
Заголовок : Antonio
Язык : Russian
Default : Нет
Forced : Нет

Текст #2
Идентификатор : 5
Формат : UTF-8
Идентификатор кодека : S_TEXT/UTF8
Идентификатор кодека/Информация : UTF-8 Plain Text
Язык : English
Default : Нет
Forced : Нет

Меню
00:00:00.000 : en:00:00:00.000
00:09:28.401 : en:00:09:28.401
00:18:53.382 : en:00:18:53.382
00:28:30.667 : en:00:28:30.667
00:38:23.968 : en:00:38:23.968
00:50:34.156 : en:00:50:34.156
00:58:05.023 : en:00:58:05.023
01:05:52.365 : en:01:05:52.365
01:16:23.704 : en:01:16:23.704
01:25:07.144 : en:01:25:07.144
01:35:01.070 : en:01:35:01.070
01:45:56.433 : en:01:45:56.433
01:59:22.072 : en:01:59:22.072
Свернуть
_________________
Изображение


С уважением
Александр.
Не в сети
Профиль  
Начать новую темуОтветить на тему  [ 1 сообщение ] 
Вы не можете начинать темы
Вы не можете отвечать на сообщения
Вы не можете редактировать свои сообщения
Вы не можете удалять свои сообщения