Правила форума

  • В этом разделе создание новых тем Запрещено.
  • Для создания новых тем пользуйтесь Корневым разделом DVD и HD фильмы.
Начать новую темуОтветить на тему  [ Сообщений: 2 ] 
Торрент файл
Размер: 6.83 GB • Зарегистрирован: 4 года 9 месяцев • Статус: Проверено
Скачан: 60 раз • Желающих скачать: 0 • Поблагодарили: 13 раз
 Раздают: 0  |  0 KB/s  ]   Качают: 0  |  0 KB/s  ] 
 Полного источника не было 3 года 2 месяца 
Сообщения
 Добавлено: 2012-02-24 13:10
Модератор релиз-группы
Аватара пользователя
Стаж: 9 лет 1 месяц
Возраст: 97
Сообщений: 11659
Спасибок: 6530
Лайков: 269
Маркиз / Le marquis

Изображение

Год выхода: 2011
Страна: США
Жанр: Комедия,Криминал
Продолжительность: 01:28:25
Перевод: Профессиональный (многоголосный) [Лицензия]

Режиссер: Доминик Фарруджия

В ролях: Франк Дюбоск, Ришар Берри, Жан-Юг Англад, Луиза Раньери, Сара Мартыньш, Паскали Луанджи, Джоэль Торре, Фред Сконтленд, Ален Зеф

Описание:
Тома Гардесс заключили в тюрьму на шесть месяцев за какое-то правонарушение. Чтобы завоевать у заключенных авторитет, да и просто потехи ради он говорит им, что он легендарный Маркиз — гениальный мошенник, лица которого никто никогда не видел. Теперь ему предстоит показать все таланты и навыки знаменитого Маркиза: бывалый грабитель Квентин хочет нанять самозванца на работу…
Изображение


Качество: BDRip 1080p
Формат: mkv
Видео: MPEG4 Video (H264) 1920x1040 23.98fps 9027 kb/s
Аудио: Russian: AC3, 448 kb/s (6 ch)
Аудио: French: DTS, 1510 kb/s (6 ch)
скриншоты
Изображение


Изображение

Изображение

Изображение
Свернуть
Mi
Format : Matroska
Format version : Version 2
File size : 6.83 GiB
Duration : 1h 28mn
Overall bit rate : 11.1 Mbps
Movie name : http://tracker.goliaf.tv
Encoded date : UTC 2012-02-23 20:52:56
Writing application : mkvmerge v5.2.0 ('I can't explain') built on Dec 18 2011 18:12:03
Writing library : libebml v1.2.3 + libmatroska v1.3.0

Video
ID : 1
Format : AVC
Format/Info : Advanced Video Codec
Format profile : High@L4.1
Format settings, CABAC : Yes
Format settings, ReFrames : 4 frames
Codec ID : V_MPEG4/ISO/AVC
Duration : 1h 28mn
Bit rate : 9 097 Kbps
Width : 1 920 pixels
Height : 1 040 pixels
Display aspect ratio : 16:9
Frame rate : 23.976 fps
Color space : YUV
Chroma subsampling : 4:2:0
Bit depth : 8 bits
Scan type : Progressive
Bits/(Pixel*Frame) : 0.190
Stream size : 5.48 GiB (80%)
Writing library : x264 core 115 r1995 c1e60b9
Encoding settings : cabac=1 / ref=4 / deblock=1:0:0 / analyse=0x3:0x113 / me=umh / subme=7 / psy=1 / psy_rd=1.00:0.15 / mixed_ref=1 / me_range=16 / chroma_me=1 / trellis=1 / 8x8dct=1 / cqm=0 / deadzone=21,11 / fast_pskip=0 / chroma_qp_offset=-3 / threads=6 / sliced_threads=0 / nr=0 / decimate=1 / interlaced=0 / bluray_compat=0 / constrained_intra=0 / bframes=3 / b_pyramid=2 / b_adapt=1 / b_bias=0 / direct=1 / weightb=1 / open_gop=0 / weightp=2 / keyint=250 / keyint_min=23 / scenecut=40 / intra_refresh=0 / rc_lookahead=40 / rc=2pass / mbtree=1 / bitrate=9097 / ratetol=1.0 / qcomp=0.60 / qpmin=0 / qpmax=69 / qpstep=4 / cplxblur=20.0 / qblur=0.5 / ip_ratio=1.40 / aq=1:1.00
Language : English
Default : Yes
Forced : No

Audio #1
ID : 2
Format : AC-3
Format/Info : Audio Coding 3
Mode extension : CM (complete main)
Codec ID : A_AC3
Duration : 1h 28mn
Bit rate mode : Constant
Bit rate : 448 Kbps
Channel(s) : 6 channels
Channel positions : Front: L C R, Side: L R, LFE
Sampling rate : 48.0 KHz
Bit depth : 16 bits
Compression mode : Lossy
Stream size : 283 MiB (4%)
Language : Russian
Default : Yes
Forced : No

Audio #2
ID : 3
Format : DTS
Format/Info : Digital Theater Systems
Codec ID : A_DTS
Duration : 1h 28mn
Bit rate mode : Constant
Bit rate : 1 510 Kbps
Channel(s) : 6 channels
Channel positions : Front: L C R, Side: L R, LFE
Sampling rate : 48.0 KHz
Bit depth : 24 bits
Compression mode : Lossy
Stream size : 955 MiB (14%)
Language : French
Default : No
Forced : No

Text #1
ID : 4
Format : VobSub
Muxing mode : zlib
Codec ID : S_VOBSUB
Codec ID/Info : The same subtitle format used on DVDs
Language : Russian
Default : No
Forced : No

Text #2
ID : 5
Format : VobSub
Muxing mode : zlib
Codec ID : S_VOBSUB
Codec ID/Info : The same subtitle format used on DVDs
Language : Russian
Default : No
Forced : No

Menu
00:00:00.000 : en:00:00:00.000
00:09:13.803 : en:00:09:13.803
00:14:58.815 : en:00:14:58.815
00:23:15.603 : en:00:23:15.603
00:30:52.642 : en:00:30:52.642
00:37:12.063 : en:00:37:12.063
00:45:05.453 : en:00:45:05.453
00:50:00.664 : en:00:50:00.664
00:59:06.960 : en:00:59:06.960
01:06:42.332 : en:01:06:42.332
01:15:39.201 : en:01:15:39.201
01:24:29.564 : en:01:24:29.564

Свернуть
_________________
Изображение
Не в сети
Профиль  
 Добавлено: 2012-03-07 22:22 (спустя 12 дней)
Аватара пользователя
Стаж: 7 лет 5 месяцев
Возраст: 51
Сообщений: 1772
Лайков: 1386
А ничего! Вполне неплохое кинцо. Я ожидал куда худшего, особенно начитавшись отзывов в тырнете. А получилось - вполне классическая французская комедия, почти такая, на какие мы ходили в восьмидесятые годы в кинотеатры "Рекорд" и "Октябрь", только посовременее, и оттого, осмелюсь высказаться, даже лучше. Я отсидел полтора часа без малейшего напряга и даже засмеялся раз пять. И сюжет - вполне себе. В общем, качать вполне можно и смотреть приятно и весело. Даже без вопросов.

Особенно мне понравилась парочка главных героев. Особенно тот, кто постарше, черненький. Вначале кажется размазня размазней, а потом начинает действовать, и чем дальше, тем удачней и энергичнее. В нем присутствует явная диалектика.

В общем, при всей моей привередливости, ;;-))) - примерно 7 из 10. Куда лучше многих из широко разрекламированных фильмов-раздач последнего месяца.

:dan_ser:[/u]
Не в сети
Профиль  
Начать новую темуОтветить на тему  [ Сообщений: 2 ] 
Вы не можете начинать темы
Вы не можете отвечать на сообщения
Вы не можете редактировать свои сообщения
Вы не можете удалять свои сообщения