Правила форума

  • В этом разделе создание новых тем Запрещено.
  • Для создания новых тем пользуйтесь Корневым разделом DVD и HD фильмы.
Начать новую темуОтветить на тему  [ Сообщений: 8 ] 
Торрент файл
Размер: 11.3 GB • Зарегистрирован: 11 месяцев • Статус: Проверено
Скачан: 1034 раза • Желающих скачать: 0 • Поблагодарили: 213 раз
 Раздают: 14  |  1006 KB/s  ]   Качают: 0  |  0 KB/s  ] 
Сообщения
 Добавлено: 2015-12-30 03:06
DVD Release Group
Аватара пользователя
Стаж: 7 лет 1 месяц
Сообщений: 3565
Спасибок: 247519
Лайков: 1020
Марсианин

The Martian


Изображение


Год выпуска: 2015
Страна: США
Жанр: Фантастика, приключения
Продолжительность: 02:21:38
Перевод: Профессиональный (полное дублирование)
Субтитры: Русские, английские, испанские
Режиссер: Ридли Скотт
В ролях: Мэтт Дэймон, Джессика Честейн, Кристен Уиг, Джефф Дэниелс, Майкл Пенья, Шон Бин, Кейт Мара, Себастьян Стэн, Аксель Хенни, Чиветель Эджиофор
Описание: Марсианская миссия «Арес-3» в процессе работы была вынуждена экстренно покинуть планету из-за надвигающейся песчаной бури. Инженер и биолог Марк Уотни получил повреждение скафандра во время песчаной бури. Сотрудники миссии, посчитав его погибшим, эвакуировались с планеты, оставив Марка одного. Очнувшись, Уотни обнаруживает, что связь с Землёй отсутствует, но при этом полностью функционирует жилой модуль. Главный герой начинает искать способ продержаться на имеющихся запасах еды, витаминов, воды и воздуха ещё 4 года до прилёта следующей миссии «Арес-4».
Изображение Изображение
Качество: BDRip 1080p
Формат: MKV
Видео кодек: H.264
Аудио кодек: AC3, DTS
Видео: 1920x800 23.98fps 9543kbps
Аудио:
Аудио Rus: AC3 48kHz 6ch 384kbps
Аудио Eng: DTS 48kHz 6ch 1510kbps
"MediaInfo"
Формат : Matroska
Версия формата : Version 4 / Version 2
Размер файла : 11,3 Гбайт
Продолжительность : 2 ч. 21 м.
Общий поток : 11,4 Мбит/сек
Дата кодирования : UTC 2015-12-29 22:09:46
Программа кодирования : mkvmerge v8.3.0 ('Over the Horizon') 64bit
Библиотека кодирования : libebml v1.3.1 + libmatroska v1.4.2
DURATION : 02:15:59.276000000
NUMBER_OF_FRAMES : 2145
NUMBER_OF_BYTES : 63758
_STATISTICS_WRITING_APP : mkvmerge v8.3.0 ('Over the Horizon') 64bit
_STATISTICS_WRITING_DATE_UTC : 2015-12-29 22:09:46
_STATISTICS_TAGS : BPS DURATION NUMBER_OF_FRAMES NUMBER_OF_BYTES

Видео
Идентификатор : 1
Формат : AVC
Формат/Информация : Advanced Video Codec
Профиль формата : High@L4.1
Параметр CABAC формата : Да
Параметр ReFrames формата : 5 кадров
Идентификатор кодека : V_MPEG4/ISO/AVC
Продолжительность : 2 ч. 21 м.
Битрейт : 9543 Кбит/сек
Ширина : 1920 пикселей
Высота : 800 пикселей
Соотношение сторон : 2,40:1
Режим частоты кадров : Постоянный
Частота кадров : 23,976 кадра/сек
Цветовое пространство : YUV
Субдискретизация насыщенности : 4:2:0
Битовая глубина : 8 бит
Тип развёртки : Прогрессивная
Бит/(Пиксели*Кадры) : 0.259
Размер потока : 9,21 Гбайт (81%)
Библиотека кодирования : x264 core 148 r2638 7599210
Настройки программы : cabac=1 / ref=5 / deblock=1:0:0 / analyse=0x3:0x113 / me=umh / subme=8 / psy=1 / psy_rd=1.00:0.00 / mixed_ref=1 / me_range=16 / chroma_me=1 / trellis=1 / 8x8dct=1 / cqm=0 / deadzone=21,11 / fast_pskip=0 / chroma_qp_offset=-2 / threads=24 / lookahead_threads=4 / sliced_threads=0 / nr=0 / decimate=1 / interlaced=0 / bluray_compat=0 / constrained_intra=0 / bframes=3 / b_pyramid=2 / b_adapt=2 / b_bias=0 / direct=3 / weightb=1 / open_gop=0 / weightp=2 / keyint=250 / keyint_min=23 / scenecut=40 / intra_refresh=0 / rc_lookahead=50 / rc=2pass / mbtree=1 / bitrate=9543 / ratetol=1.0 / qcomp=0.60 / qpmin=0 / qpmax=69 / qpstep=4 / cplxblur=20.0 / qblur=0.5 / ip_ratio=1.40 / aq=1:1.00
Язык : English
Default : Да
Forced : Нет
DURATION : 02:21:37.573000000
NUMBER_OF_FRAMES : 203736
NUMBER_OF_BYTES : 10123147160
_STATISTICS_WRITING_APP : mkvmerge v8.3.0 ('Over the Horizon') 64bit
_STATISTICS_WRITING_DATE_UTC : 2015-12-29 22:09:46
_STATISTICS_TAGS : BPS DURATION NUMBER_OF_FRAMES NUMBER_OF_BYTES

Аудио #1
Идентификатор : 2
Формат : AC-3
Формат/Информация : Audio Coding 3
Расширение режима : CM (complete main)
Параметр Endianness формата : Big
Идентификатор кодека : A_AC3
Продолжительность : 2 ч. 21 м.
Вид битрейта : Постоянный
Битрейт : 384 Кбит/сек
Каналы : 6 каналов
Расположение каналов : Front: L C R, Side: L R, LFE
Частота : 48,0 КГц
Битовая глубина : 16 бит
Метод сжатия : С потерями
Размер потока : 389 Мбайт (3%)
Язык : Russian
Default : Да
Forced : Нет

Аудио #2
Идентификатор : 3
Формат : DTS
Формат/Информация : Digital Theater Systems
Режим : 16
Параметр Endianness формата : Big
Идентификатор кодека : A_DTS
Продолжительность : 2 ч. 21 м.
Вид битрейта : Постоянный
Битрейт : 1509 Кбит/сек
Каналы : 6 каналов
Расположение каналов : Front: L C R, Side: L R, LFE
Частота : 48,0 КГц
Битовая глубина : 24 бит
Метод сжатия : С потерями
Размер потока : 1,49 Гбайт (13%)
Язык : English
Default : Нет
Forced : Нет

Текст #1
Идентификатор : 4
Формат : UTF-8
Идентификатор кодека : S_TEXT/UTF8
Идентификатор кодека/Информация : UTF-8 Plain Text
Заголовок : Forced
Язык : Russian
Default : Нет
Forced : Нет

Текст #2
Идентификатор : 5
Формат : UTF-8
Идентификатор кодека : S_TEXT/UTF8
Идентификатор кодека/Информация : UTF-8 Plain Text
Default : Да
Forced : Нет

Текст #3
Идентификатор : 6
Формат : UTF-8
Идентификатор кодека : S_TEXT/UTF8
Идентификатор кодека/Информация : UTF-8 Plain Text
Default : Нет
Forced : Нет

Текст #4
Идентификатор : 7
Формат : UTF-8
Идентификатор кодека : S_TEXT/UTF8
Идентификатор кодека/Информация : UTF-8 Plain Text
Заголовок : sdh
Default : Нет
Forced : Нет

Меню
00:00:00.000 : en:00:00:00.000
00:03:22.285 : en:00:03:22.285
00:10:08.983 : en:00:10:08.983
00:15:24.590 : en:00:15:24.590
00:18:25.187 : en:00:18:25.187
00:21:34.376 : en:00:21:34.376
00:24:28.092 : en:00:24:28.092
00:28:52.689 : en:00:28:52.689
00:31:36.645 : en:00:31:36.645
00:34:21.101 : en:00:34:21.101
00:39:13.434 : en:00:39:13.434
00:41:21.771 : en:00:41:21.771
00:46:23.531 : en:00:46:23.531
00:49:25.087 : en:00:49:25.087
00:56:15.747 : en:00:56:15.747
00:59:40.494 : en:00:59:40.494
01:02:23.823 : en:01:02:23.823
01:06:53.134 : en:01:06:53.134
01:09:52.980 : en:01:09:52.980
01:13:51.302 : en:01:13:51.302
01:18:38.255 : en:01:18:38.255
01:22:52.467 : en:01:22:52.467
01:30:41.269 : en:01:30:41.269
01:37:30.094 : en:01:37:30.094
01:43:31.997 : en:01:43:31.997
01:46:16.287 : en:01:46:16.287
01:50:18.737 : en:01:50:18.737
01:54:07.966 : en:01:54:07.966
01:57:49.312 : en:01:57:49.312
02:04:41.683 : en:02:04:41.683
02:11:05.733 : en:02:11:05.733
02:13:28.792 : en:02:13:28.792
Свернуть

"Скриншоты"
Изображение
Изображение
Изображение
Свернуть
 Bober86 нравится это.
Не в сети
Профиль  
 Добавлено: 2015-12-31 13:35 (спустя 1 день 10 часов)
Аватара пользователя
Стаж: 8 лет 7 месяцев
Возраст: 28
Сообщений: 205
Лайков: 1
В 3D будет?
_________________
Intel Core i7 860 3,36 , Asus Maximus Formula III, 8 Gb DDR3 1600 оперативы, GTX 580.
Не в сети
Профиль  
 Добавлено: 2015-12-31 15:31 (спустя 1 час 55 минут)
Аватара пользователя
Стаж: 8 лет 4 месяца
Возраст: 31
Сообщений: 203
Спасибище!!! :bra_vo:
Не в сети
Профиль  
 Добавлено: 2016-01-01 22:16 (спустя 1 день 6 часов)
Стаж: 8 лет 1 месяц
Сообщений: 215
Лайков: 24
Быстро как!!! Интерстеллар дольше ждали) :co_ol:
Не в сети
Профиль  
 Добавлено: 2016-01-03 03:26 (спустя 1 день 5 часов)
Аватара пользователя
Стаж: 9 лет 1 месяц
Сообщений: 2152
Спасибок: 778
Лайков: 14
Что-то я слышал про посадку огурцов или картошки на Марсе – сейчас проверим :D
_________________
PSN
Изображение
Свернуть
Изображение
Не в сети
Профиль  
 Добавлено: 2016-01-04 00:07 (спустя 20 часов)
Аватара пользователя
Стаж: 8 лет 11 месяцев
Сообщений: 517
Спасибок: 39
Лайков: 49

L3n1n:

Что-то я слышал про посадку огурцов или картошки на Марсе – сейчас проверим :D

Ага, алюминиевые огурцы он на брезентовом поле сажает :-D

Не в сети
Профиль  
 Добавлено: 2016-02-08 21:30 (спустя 1 месяц 4 дня)
Аватара пользователя
Стаж: 8 лет 3 месяца
Сообщений: 198
Лайков: 8
Обалденное кино!!!
Не в сети
Профиль  
 Добавлено: 2016-02-26 14:02 (спустя 17 дней)
Аватара пользователя
Стаж: 4 года 7 месяцев
Возраст: 30
Сообщений: 28
Спасибок: 13
Лайков: 4
Шедевр,лучший фильм Ридли Скотта,нет слов и всех главных Оскаров этому фильму,Леонардо снова в пролёте!!!)))_
Не в сети
Профиль  
Начать новую темуОтветить на тему  [ Сообщений: 8 ] 
Вы не можете начинать темы
Вы не можете отвечать на сообщения
Вы не можете редактировать свои сообщения
Вы не можете удалять свои сообщения