Правила форума

  • В этом разделе создание новых тем Запрещено.
  • Для создания новых тем пользуйтесь Корневым разделом DVD и HD фильмы.
Начать новую темуОтветить на тему  [ Сообщений: 2 ] 
Торрент файл
Размер: 11.93 GB • Зарегистрирован: 4 года 8 месяцев • Статус: Проверено
Скачан: 44 раза • Желающих скачать: 0 • Поблагодарили: 9 раз
 Раздают: 0  |  0 KB/s  ]   Качают: 0  |  0 KB/s  ] 
 Полного источника не было 15 дней 
Сообщения
 Добавлено: 2012-03-14 01:30
Top-releaser
Аватара пользователя
Стаж: 7 лет 3 месяца
Возраст: 25
Сообщений: 1036
Спасибок: 2694
Лайков: 9
Мартовские иды
The Ides of March


«Амбиции соблазняют. Власть развращает.»

Изображение


Год выхода: 2011
Страна: США

Жанр: драма, ...
Продолжительность: 01:41:11
Перевод: Дублированное [лицензия]

Режиссер: Джордж Клуни
Сценарий: Бо Уиллимон, Джордж Клуни, Грант Хеслов
Продюсер: Джордж Клуни, Грант Хеслов, Брайан Оливер, ...
Оператор: Фидон Папамайкл
Композитор: Александр Деспла

В ролях: Джордж Клуни, Райан Гослинг, Пол Джаматти, Филип Сеймур Хоффман, Ивэн Рэйчел Вуд, Мариса Томей, Джеффри Райт, Макс Мингелла, Дженнифер Эль

Описание: В фильме рассказывается об избирательной кампании Майка Морриса, проводившейся во время первичных выборов кандидата на пост президента США от демократической партии в 2004 году.

Изображение

Изображение

Бюджет: $12 500 000
Cборы в США: $40 962 534
Cборы в мире: + $30 010 259 = $70 972 793
Cборы в России: $447 235

Качество BDRip 1080p R5
Формат: Mkv

Видео: MPEG4 Video (H264) 1920x800 23.98fps 13.9 Mbps
Аудио 1: DTS 48000Hz 6ch 1 510 Kbps (Rus)
Аудио 2: DTS 48000Hz 6ch 1 510 Kbps (Eng)
Subtitle: Utf-8

Изображение

MediaInfo
General
Unique ID : 198129853947157585967095462679561894279 (0x950E6BFEFA1BB8569EAA138F5BF3F987)
Complete name : I:\Download\Martovskie.idy.2011.x264.BDRip(1080p).mkv
Format : Matroska
Format version : Version 2
File size : 11.9 GiB
Duration : 1h 41mn
Overall bit rate : 16.9 Mbps
Movie name : --SCHUMAHER--
Encoded date : UTC 2012-03-12 20:23:01
Writing application : mkvmerge v5.4.0 ('Piper') built on Mar 10 2012 13:34:39
Writing library : libebml v1.2.3 + libmatroska v1.3.0

Video
ID : 1
Format : AVC
Format/Info : Advanced Video Codec
Format profile : High@L4.1
Format settings, CABAC : Yes
Format settings, ReFrames : 5 frames
Codec ID : V_MPEG4/ISO/AVC
Duration : 1h 41mn
Bit rate : 13.9 Mbps
Width : 1 920 pixels
Height : 800 pixels
Display aspect ratio : 2.40:1
Frame rate : 23.976 fps
Color space : YUV
Chroma subsampling : 4:2:0
Bit depth : 8 bits
Scan type : Progressive
Bits/(Pixel*Frame) : 0.377
Stream size : 9.56 GiB (80%)
Writing library : x264 core 116 r2074 2641b9e
Encoding settings : cabac=1 / ref=5 / deblock=1:-3:-3 / analyse=0x3:0x113 / me=umh / subme=11 / psy=1 / psy_rd=1.05:0.10 / mixed_ref=1 / me_range=32 / chroma_me=1 / trellis=2 / 8x8dct=1 / cqm=0 / deadzone=21,11 / fast_pskip=0 / chroma_qp_offset=-2 / threads=8 / sliced_threads=0 / nr=0 / decimate=1 / interlaced=0 / bluray_compat=0 / constrained_intra=0 / bframes=6 / b_pyramid=2 / b_adapt=2 / b_bias=0 / direct=3 / weightb=1 / open_gop=0 / weightp=2 / keyint=250 / keyint_min=23 / scenecut=40 / intra_refresh=0 / rc_lookahead=50 / rc=2pass / mbtree=1 / bitrate=13870 / ratetol=1.0 / qcomp=0.70 / qpmin=0 / qpmax=69 / qpstep=4 / cplxblur=20.0 / qblur=0.5 / vbv_maxrate=40000 / vbv_bufsize=40000 / nal_hrd=none / ip_ratio=1.40 / aq=2:0.80
Language : English
Default : Yes
Forced : Yes

Audio #1
ID : 2
Format : DTS
Format/Info : Digital Theater Systems
Codec ID : A_DTS
Duration : 1h 41mn
Bit rate mode : Constant
Bit rate : 1 510 Kbps
Channel(s) : 6 channels
Channel positions : Front: L C R, Side: L R, LFE
Sampling rate : 48.0 KHz
Bit depth : 16 bits
Compression mode : Lossy
Stream size : 1.07 GiB (9%)
Language : Russian
Default : Yes
Forced : Yes

Audio #2
ID : 3
Format : DTS
Format/Info : Digital Theater Systems
Codec ID : A_DTS
Duration : 1h 41mn
Bit rate mode : Constant
Bit rate : 1 510 Kbps
Channel(s) : 6 channels
Channel positions : Front: L C R, Side: L R, LFE
Sampling rate : 48.0 KHz
Bit depth : 24 bits
Compression mode : Lossy
Stream size : 1.07 GiB (9%)
Language : English
Default : No
Forced : No

Text #1
ID : 4
Format : UTF-8
Codec ID : S_TEXT/UTF8
Codec ID/Info : UTF-8 Plain Text
Language : Russian
Default : No
Forced : No

Text #2
ID : 5
Format : UTF-8
Codec ID : S_TEXT/UTF8
Codec ID/Info : UTF-8 Plain Text
Language : English
Default : No
Forced : No

Menu
00:00:00.000 : en:
00:06:55.664 : en:
00:15:51.617 : en:
00:20:50.249 : en:
00:29:01.614 : en:
00:38:01.320 : en:
00:43:49.376 : en:
00:49:07.194 : en:
00:55:31.202 : en:
01:04:49.885 : en:
01:07:44.351 : en:
01:11:45.676 : en:
01:18:00.966 : en:
01:23:37.845 : en:
01:28:43.276 : en:
01:31:24.979 : en:


Свернуть
Скриншоты
Изображение
Изображение
Изображение
Изображение
Изображение
Изображение
Свернуть
Не в сети
Профиль  
 Добавлено: 2012-05-20 14:27 (спустя 2 месяца 6 дней)
Аватара пользователя
Стаж: 7 лет 6 месяцев
Возраст: 51
Сообщений: 1781
Лайков: 1395
Гослинг... вернее, его герой. А он поступил вполне логично. Он фанатично верил в своего кумира - губернатора. Верил в своего шефа. А те просто использовали его как половую тряпку. И при этом вещали каждые пять минут, что жизнь в политике - дерьмо. И когда Гослинг был реально добит, а девочку, которую он любил, просто убили (пускай не убили, а довели до самоубийства), Гослинг повел себя как настоящий мужик. Он принял правила игры, которые ему внушали многие годы. И он сказал: ладно, я поиграю по вашим правилам, но я буду сверху, а вы жидко обгадитесь. И он добился своего. И, в общем-то, он имел на это моральное право.

В фильме очень сильный сюжет, отличные актеры. Проблема только одна: это совсем не попса. Поэтому, вероятно, понравится это кино далеко не всем.

Я вообще не хотел смотреть этот фильм. Клуни - он какой-то слишком красивый и правильный... фильм об американской политике, которую я терпеть ненавижу... выборы президента... Ну на хрен все это!

Однако Алекс Экслер сказал, что посмотреть надо обязательно. Ну, я и посмотрел.

И оказалось - неплохо. Примерно 7 из 10.

Начало фильма очень затянуто, и минут 20 убрать оттуда не то что желательно, а нужно категорически. Зато потом действие набирает обороты, и становится все интересатее и интересатее. И финал сделан отлично.

Клуни - он и есть Клуни. Играет Джорджа Клуни. Нет проблем. Пусть играет. Главное - снял очередной хороший фильм.

Райан Гослинг - не слишком пока известный актер. Он реально тянет весь фильм на своих плечах и вытягивает его! Я думаю, у него неплохое будущее. Сюжет с одной стороны заштампован, с другой стороны не слишком реалистичен. И именно игра Гослинга наполняет это чукалово жизнью, эмоциями и желанием сопереживать. Молодец этот Райан! Он еще в "Драйве" меня зацепил.

А еще Пол Джаматти, Филип Сеймур Хоффман и Ивэн Рэйчел Вуд. Это очень сильные актеры, и они выкладываются на полную катушку, не халтурят. Они наполняют фильм, полупустой по сути, отличным драйвом. Молодцы!

Смотреть иль не смотреть? Я не могу дать однозначного ответа. Если смотреть - то всяко на ДВД, в кинотеатре такое высидеть невозможно. Вторая половина фильма перевешивает первую раз в десять. В то же время, если не смотреть половину первую, не вникая в каждое слово, вторая половина будет непонятна.

Мне фильм понравился. Тем, кто любит актерское, логически выстроенное кино, оно, вероятно, понравится тоже. Любителям боевиков, блокбастеров, спецэффектов и тупого юмора делать там просто нечего. Даже не пытайтесь.

Примерно так.
Не в сети
Профиль  
Начать новую темуОтветить на тему  [ Сообщений: 2 ] 
Вы не можете начинать темы
Вы не можете отвечать на сообщения
Вы не можете редактировать свои сообщения
Вы не можете удалять свои сообщения