Правила форума

  • В этом разделе создание новых тем Запрещено.
  • Для создания новых тем пользуйтесь Корневым разделом DVD и HD фильмы.
Начать новую темуОтветить на тему  [ 1 сообщение ] 
Торрент файл
Размер: 7.29 GB • Зарегистрирован: 5 лет • Статус: Проверено
Скачан: 15 раз • Желающих скачать: 0 • Поблагодарили: 6 раз
 Раздают: 0  |  0 KB/s  ]   Качают: 0  |  0 KB/s  ] 
 Полного источника не было 3 года 2 месяца 
Сообщения
 Добавлено: 2011-11-09 13:12
Модератор релиз-группы
Аватара пользователя
Стаж: 9 лет 1 месяц
Возраст: 97
Сообщений: 11659
Спасибок: 6530
Лайков: 269
Мартовские коты / Tomcats

Изображение


Страна: США
Жанр: комедия
Год выпуска: 2001
Продолжительность: 01:34:41
Перевод : Профессиональный (многоголосый закадровый)
Профессиональный (многоголосый закадровый)
Профессиональный (дублированный) с ТВ
Оригинальная аудиодорожка
Cубтитры: русские, английские (2 вида)


Режиссер: Грегори Пуарье / Gregory Poirier

В ролях: Джерри О'Коннелл /Jerry O'Connell/, Шэннон Элизабет /Shannon Elizabeth/, Джейк Бьюзи /Jake Busey/, Хоратио Санс /Horatio Sanz/, Джейми Прессли /Jaime Pressly/, Берни Кэйси /Bernie Casey/, Дэвид Огден Стайер, Трэвис Файн, Хэзер Стивенс, Джулия Шульц.

Описание: Мартовские коты — это компания старшеклассников, заключивших пакт; каждый делает ежемесячные взносы, а весь куш получит последний оставшийся холостяком. По происшествии нескольких лет холостяков осталось двое. И одному нужны деньги, чтобы расплатиться с мафией, а второй ненавидит женщин.
Первый готов поделиться кушем с девицей, которая разведет второго на брачный контракт, но сам поддается ее чарам. Самое интересное — это не отношение героев, а юмор.
Изображение
Качество: BDRip
Формат: MKV
Видео: x.264, 1920x1040, 8404 Kbps, 23.976 fps
Аудио 1: AC3, 48000 Hz, 448 Kbps, 5.1 channels - MVO 1
Аудио 2: AC3, 48000 Hz, 448 Kbps, 5.1 channels - MVO 2
Аудио 3: AC3, 48000 Hz, 448 Kbps, 5.1 channels - DUB
Аудио 4: DTS, 48000 Hz, 448 Kbps, 5.1 channels - ENG
Cубтитры: softsub (SRT) - русские, английские (2 вида)

скриншоты
Изображение

Изображение

Изображение

Изображение
Свернуть

Mi
Format : Matroska
Format version : Version 2
File size : 7.29 GiB
Duration : 1h 34mn
Overall bit rate : 11.0 Mbps
Movie name : Мартовские коты / Tomcats (2001) BDRip 1080p
Encoded date : UTC 2011-11-08 17:59:49
Writing application : mkvmerge v5.0.1 ('Es ist Sommer') built on Oct 9 2011 11:55:43
Writing library : libebml v1.2.2 + libmatroska v1.3.0
Attachment : Yes

Video
ID : 1
Format : AVC
Format/Info : Advanced Video Codec
Format profile : High@L4.1
Format settings, CABAC : Yes
Format settings, ReFrames : 4 frames
Codec ID : V_MPEG4/ISO/AVC
Duration : 1h 34mn
Bit rate : 8 404 Kbps
Width : 1 920 pixels
Height : 1 040 pixels
Display aspect ratio : 16:9
Frame rate : 23.976 fps
Color space : YUV
Chroma subsampling : 4:2:0
Bit depth : 8 bits
Scan type : Progressive
Bits/(Pixel*Frame) : 0.176
Stream size : 5.41 GiB (74%)
Writing library : x264 core 118 r2085 8a62835
Encoding settings : cabac=1 / ref=4 / deblock=1:0:0 / analyse=0x3:0x113 / me=umh / subme=8 / psy=1 / psy_rd=1.00:0.00 / mixed_ref=1 / me_range=16 / chroma_me=1 / trellis=1 / 8x8dct=1 / cqm=0 / deadzone=21,11 / fast_pskip=1 / chroma_qp_offset=-2 / threads=12 / sliced_threads=0 / nr=0 / decimate=1 / interlaced=0 / bluray_compat=0 / constrained_intra=0 / bframes=3 / b_pyramid=2 / b_adapt=2 / b_bias=0 / direct=3 / weightb=1 / open_gop=0 / weightp=2 / keyint=240 / keyint_min=24 / scenecut=40 / intra_refresh=0 / rc_lookahead=50 / rc=2pass / mbtree=1 / bitrate=8404 / ratetol=1.0 / qcomp=0.60 / qpmin=0 / qpmax=69 / qpstep=4 / cplxblur=20.0 / qblur=0.5 / ip_ratio=1.40 / aq=1:1.00
Language : English

Audio #1
ID : 2
Format : AC-3
Format/Info : Audio Coding 3
Mode extension : CM (complete main)
Codec ID : A_AC3
Duration : 1h 34mn
Bit rate mode : Constant
Bit rate : 448 Kbps
Channel(s) : 6 channels
Channel positions : Front: L C R, Side: L R, LFE
Sampling rate : 48.0 KHz
Bit depth : 16 bits
Compression mode : Lossy
Stream size : 303 MiB (4%)
Title : AC3 - MVO 1
Language : Russian

Audio #2
ID : 3
Format : AC-3
Format/Info : Audio Coding 3
Mode extension : CM (complete main)
Codec ID : A_AC3
Duration : 1h 34mn
Bit rate mode : Constant
Bit rate : 448 Kbps
Channel(s) : 6 channels
Channel positions : Front: L C R, Side: L R, LFE
Sampling rate : 48.0 KHz
Bit depth : 16 bits
Compression mode : Lossy
Stream size : 303 MiB (4%)
Title : AC3 - MVO 2
Language : Russian

Audio #3
ID : 4
Format : AC-3
Format/Info : Audio Coding 3
Mode extension : CM (complete main)
Codec ID : A_AC3
Duration : 1h 34mn
Bit rate mode : Constant
Bit rate : 224 Kbps
Channel(s) : 2 channels
Channel positions : Front: L R
Sampling rate : 48.0 KHz
Bit depth : 16 bits
Compression mode : Lossy
Stream size : 152 MiB (2%)
Title : AC3 - Dub (TV record) 1 канал
Language : Russian

Audio #4
ID : 5
Format : DTS
Format/Info : Digital Theater Systems
Codec ID : A_DTS
Duration : 1h 34mn
Bit rate mode : Constant
Bit rate : 1 510 Kbps
Channel(s) : 6 channels
Channel positions : Front: L C R, Side: L R, LFE
Sampling rate : 48.0 KHz
Bit depth : 24 bits
Compression mode : Lossy
Stream size : 1 023 MiB (14%)
Title : DTS - ENG
Language : English

Text #1
ID : 6
Format : UTF-8
Codec ID : S_TEXT/UTF8
Codec ID/Info : UTF-8 Plain Text
Title : Full
Language : Russian

Text #2
ID : 7
Format : UTF-8
Codec ID : S_TEXT/UTF8
Codec ID/Info : UTF-8 Plain Text
Title : SDH
Language : English

Text #3
ID : 8
Format : UTF-8
Codec ID : S_TEXT/UTF8
Codec ID/Info : UTF-8 Plain Text
Title : Full
Language : English

Menu
00:00:00.000 : en:00:00:00.000
00:06:39.149 : en:00:06:39.149
00:10:36.678 : en:00:10:36.678
00:17:35.888 : en:00:17:35.888
00:25:19.977 : en:00:25:19.977
00:28:53.273 : en:00:28:53.273
00:34:35.240 : en:00:34:35.240
00:41:52.677 : en:00:41:52.677
00:46:10.851 : en:00:46:10.851
00:48:24.318 : en:00:48:24.318
00:53:06.600 : en:00:53:06.600
01:02:45.387 : en:01:02:45.387
01:07:18.409 : en:01:07:18.409
01:13:53.054 : en:01:13:53.054
01:16:30.044 : en:01:16:30.044
01:21:58.956 : en:01:21:58.956

Свернуть
_________________
Изображение
Не в сети
Профиль  
Начать новую темуОтветить на тему  [ 1 сообщение ] 
Вы не можете начинать темы
Вы не можете отвечать на сообщения
Вы не можете редактировать свои сообщения
Вы не можете удалять свои сообщения