Правила форума

  • В этом разделе создание новых тем Запрещено.
  • Для создания новых тем пользуйтесь Корневым разделом DVD и HD фильмы.
Начать новую темуОтветить на тему  [ 1 сообщение ] 
Торрент файл
Размер: 8.2 GB • Зарегистрирован: 4 года 4 месяца • Статус: Проверено
Скачан: 58 раз • Желающих скачать: 0 • Поблагодарили: 19 раз
 Раздают: 0  |  0 KB/s  ]   Качают: 0  |  0 KB/s  ] 
 Полного источника не было 16 дней 
Сообщения
 Добавлено: 2012-07-11 17:51
Top-releaser
Аватара пользователя
Стаж: 6 лет 7 месяцев
Сообщений: 2078
Спасибок: 3230
Лайков: 9
Машина времени / The Time Machine
«Будь осторожен в своих желаниях»

Изображение


Год выпуска: 2002
Страна: США
Жанр: фантастика, боевик, приключения
Продолжительность: 01:36:12
Перевод: Профессиональный (полное дублирование)

Режиссёр: Саймон Уэллс
В ролях: Гай Пирс, Марк Эдди, Филлида Ло, Лаура Кирк, Джош Стэмберг, Сиенна Гиллори, Макс Бэйкер, Джеффри М. Мейер, Алан Янг
Описание: Профессор Александр Хартдеген изобрел машину времени. Изобрел не потому, что он гений-ученый, а для того что бы отправиться в прошлое и спасти свою невесту от случайной пули. Но ее смерть предотвратить не удалось - прошлое нельзя изменить. В поисках ответа на вопрос «почему?» Хартдеген забирается на двести лет в будущее, застав Землю в ужасающем состоянии.
Получив ранение и впав в беспамятство он и не заметил, как его машина прошла сквозь восемьсот тысяч лет истории планеты Земля. Человечество изменилось, века технократии канули в Лету, люди стали похожими на добрых папуасов, живущих с домах-люльках, подвешенных к скалам.
Но у столь пасторальной картины есть и темная сторона. Часть человечества эволюционировало в морлоков - чудищ, живущих под землей в пещерах, и пожирающих тех, кто живет на земле.

Бюджет: $80 000 000
Маркетинг: $30 000 000
Сборы в США: $56 832 494
Сборы в мире: + $66 896 682 = $123 729 176
Раздача группы: Изображение

Качество: DTheater-Rip, 1080p
Формат: MKV
Видео кодек: H.264
Аудио кодек: AC3, DTS
Видео: 1920x800, x264, 23.976 fps, ~11070 kbps
Аудио #1: Русский AC3, 6ch 384 kbps
Аудио #2: Aнглийский DTS 5.1, 768 kbps
Субтитры: Русские, Английские, Сербские

Знаете ли вы, что...
  • После того как режиссёр Саймон Уэллс вынужден был прервать свою работу над проектом из-за крайнего переутомления, заменить его на оставшиеся 18 дней съёмок был специально приглашён Гор Вербински. Саймон Уэллс вернулся к своим обязанностям уже на стадии пост-продакшна.
  • Режиссёр Саймон Уэллс приходится правнуком знаменитого писателя-фантаста Герберта Уэллса, который написал одноимённый роман, ставший основой фильма.
  • Когда Александр впервые встречается с Воксом (искусственный разум, появляющийся в виде голограммы в библиотеке), он спрашивает о книгах по путешествиям по времени, и одной из предложенных оказывается «Машина времени» Герберта Уэллса. Также Вокс упоминает оригинальную киноленту «Машина времени» (1960).
  • Изначально Вокс должен быть роботом, однако, практически одновременно с «Машиной времени» снимался «Искусственный разум» Стивена Спилберга, в котором были задействованы роботы очень схожие по дизайну. Только после того как пришлось отказаться от всех возможных вариантов, художнику-постановщику Оливеру Шоллю пришла в голову идея сделать этот персонаж голограммой.
  • Первоначально премьера фильма была запланирована на декабрь 2001 года, но трагические события 11 сентября 2001 года внесли свои коррективы. Одна из сцен фильма изображала футуристические небоскрёбы в Нью-Йорке, на которые обрушивается метеоритный дождь из обломков Луны, и продюсеры посчитали, что такой вид может напомнить зрителям о недавней террористической атаке на башни-близнецы Всемирного торгового центра.
  • Алан Янг, который играл роль Филби в фильме 1960 года, появляется в камео в качестве владельца цветочного магазина.
  • Фрагмент, который Орландо Джонс (Вокс) читает элоям, взят из 17-й главы «Приключений Тома Сойера» Марка Твена.
  • Гай Пирс сломал ребро во время съёмок схватки с морлоками.
  • В нескольких кадрах в доме Александра можно заметить фотографию Герберта Уэллса, написавшего роман, по которому поставлен фильм.
  • В одной из сцен, когда Александр путешествует во времени, на счётчике его машины можно заметить дату 635 427 810 год нашей эры.
  • Сама машина времени на тот момент была самым большим и дорогостоящим предметом, специально изготовленным для съёмок фильма.
  • Актёрская игра Гая Пирса была настолько уверенна и стабильна, что при необходимости звук из одного дубля мог быть наложен на картинку из другого и при этом идеально совпадать.
  • Гай Пирс снялся без участия дублёров в подавляющем большинстве трюковых сцен и был очень недоволен, когда ему так и не разрешили самому исполнить несколько, показавшихся режиссёру чересчур сложными, трюков.
  • Морлоков в фильме изображали актёры в специальных костюмах с аниматронными масками. В сценах, когда они с невероятной скоростью бегут на четырёх конечностях, была использована компьютерная графика.
  • Съёмочный период: февраль-июнь 2001 года.
Свернуть
MediaInfo
Общее
Уникальный идентификатор : 203528421956517257473445979509909430808 (0x991E25F2ECD7084ABB2A5D78E4A52218)
Полное имя : Z:\WWW\TR-Downloads\The Time Machine.720p[R.G.Daredevil].mkv
Формат : Matroska
Версия формата : Version 1
Размер файла : 8,20 Гбайт
Продолжительность : 1 ч. 36 м.
Общий поток : 12,2 Мбит/сек
Название фильма : -=HANSMER=- (HQ-Films.ws)
Дата кодирования : UTC 2008-06-25 17:35:31
Программа кодирования : mkvmerge v2.2.0 ('Turn It On Again') built on Mar 4 2008 13:20:25
Библиотека кодирования : libebml v0.7.7 + libmatroska v0.8.1

Видео
Идентификатор : 1
Формат : AVC
Формат/Информация : Advanced Video Codec
Профиль формата : High@L5.1
Параметр CABAC формата : Да
Параметр ReFrames формата : 5 кадров
Идентификатор кодека : V_MPEG4/ISO/AVC
Продолжительность : 1 ч. 36 м.
Битрейт : 11,1 Мбит/сек
Ширина : 1920 пикселей
Высота : 800 пикселей
Соотношение сторон : 2,40:1
Частота кадров : 23,976 кадра/сек
Цветовое пространство : YUV
Субдискретизация насыщенности : 4:2:0
Битовая глубина : 8 бит
Тип развёртки : Прогрессивная
Бит/(Пиксели*Кадры) : 0.301
Размер потока : 7,28 Гбайт (89%)
Заголовок : The.Time.Machine.2002.1080p.DTheater.DTS.x264-CtrlHD
Библиотека кодирования : x264 core 60 r883M cfaac5c
Настройки программы : cabac=1 / ref=5 / deblock=1:-3:-3 / analyse=0x3:0x133 / me=umh / subme=7 / brdo=1 / mixed_ref=1 / me_range=16 / chroma_me=1 / trellis=0 / 8x8dct=1 / cqm=2 / deadzone=6,4 / chroma_qp_offset=0 / threads=6 / nr=0 / decimate=1 / mbaff=0 / fgo=10 / bframes=3 / b_pyramid=1 / b_adapt=1 / b_bias=0 / direct=3 / wpredb=1 / bime=1 / keyint=250 / keyint_min=25 / scenecut=40(pre) / rc=2pass / bitrate=11070 / ratetol=1.0 / rceq='blurCplx^(1-qComp)' / qcomp=1.00 / qpmin=10 / qpmax=51 / qpstep=4 / cplxblur=20.0 / qblur=0.5 / ip_ratio=1.40 / pb_ratio=1.15 / aq=2:0.60
Язык : English
Default : Да
Forced : Нет

Аудио #1
Идентификатор : 2
Формат : AC-3
Формат/Информация : Audio Coding 3
Расширение режима : CM (complete main)
Параметр Endianness формата : Big
Идентификатор кодека : A_AC3
Продолжительность : 1 ч. 36 м.
Вид битрейта : Постоянный
Битрейт : 384 Кбит/сек
Каналы : 6 каналов
Расположение каналов : Front: L C R, Side: L R, LFE
Частота : 48,0 КГц
Битовая глубина : 16 бит
Метод сжатия : С потерями
Размер потока : 264 Мбайт (3%)
Язык : Russian
Default : Да
Forced : Нет

Аудио #2
Идентификатор : 3
Формат : DTS
Формат/Информация : Digital Theater Systems
Идентификатор кодека : A_DTS
Продолжительность : 1 ч. 36 м.
Вид битрейта : Постоянный
Битрейт : 755 Кбит/сек
Каналы : 6 каналов
Расположение каналов : Front: L C R, Side: L R, LFE
Частота : 48,0 КГц
Битовая глубина : 16 бит
Метод сжатия : С потерями
Размер потока : 519 Мбайт (6%)
Язык : English
Default : Нет
Forced : Нет

Текст #1
Идентификатор : 4
Формат : UTF-8
Идентификатор кодека : S_TEXT/UTF8
Идентификатор кодека/Информация : UTF-8 Plain Text
Язык : Russian
Default : Да
Forced : Нет

Текст #2
Идентификатор : 5
Формат : ASS
Идентификатор кодека : S_TEXT/ASS
Идентификатор кодека/Информация : Advanced Sub Station Alpha
Метод сжатия : Без потерь
Язык : English
Default : Нет
Forced : Нет

Текст #3
Идентификатор : 6
Формат : ASS
Идентификатор кодека : S_TEXT/ASS
Идентификатор кодека/Информация : Advanced Sub Station Alpha
Метод сжатия : Без потерь
Язык : Serbian
Default : Нет
Forced : Нет

Текст #4
Идентификатор : 7
Формат : ASS
Идентификатор кодека : S_TEXT/ASS
Идентификатор кодека/Информация : Advanced Sub Station Alpha
Метод сжатия : Без потерь
Язык : Slovenian
Default : Нет
Forced : Нет
Свернуть
Скриншоты
Изображение

Изображение

Изображение

Изображение

Изображение
Свернуть
Не в сети
Профиль  
Начать новую темуОтветить на тему  [ 1 сообщение ] 
Вы не можете начинать темы
Вы не можете отвечать на сообщения
Вы не можете редактировать свои сообщения
Вы не можете удалять свои сообщения
cron