Правила форума

  • В этом разделе создание новых тем Запрещено.
  • Для создания новых тем пользуйтесь Корневым разделом DVD и HD фильмы.
Начать новую темуОтветить на тему  [ Сообщений: 4 ] 
Торрент файл
Размер: 4.24 GB • Зарегистрирован: 5 лет 7 месяцев • Статус: Проверено
Скачан: 84 раза • Желающих скачать: 0 • Поблагодарили: 13 раз
 Раздают: 0  |  0 KB/s  ]   Качают: 0  |  0 KB/s  ] 
 Полного источника не было 2 месяца 15 дней 
Сообщения
 Добавлено: 2011-04-22 04:59
Аватара пользователя
Стаж: 9 лет
Сообщений: 168
Спасибок: 2139
Машинист / El Maquinista / The Machinist

«How do you wake up from a nightmare if you're not asleep?» / «Как Вы проснётесь от кошмара, если Вы не спите?»
Изображение



Год выпуска: 2004
Страна: Испания

Жанр: триллер, драма, детектив
Продолжительность: 01:41:55
Версия фильма: Unrated / Полная версия
Перевод: Профессиональный (многоголосый закадровый) + Профессиональный (двухголосый закадровый) + Оригинальная звуковая дорожка + Комментарий
Субтитры: Русские, Английские

Режиссёр: Брэд Андерсон
В ролях: Кристиан Бэйл, Дженнифер Джейсон Ли, Айтана Санчес-Хихон, Джон Шариан, Майкл Айронсайд, Ларри Гильярд-мл., Редж И. Кэти, Анна Мэсси, Джеймс ДеПол, Мэттью Ромеро Мур, Крэйг Стивенсон, Рег Уилсон
Описание: Тревор Резник не спит уже целый год. Превратившись в живой скелет, он балансирует на грани сна и реальности. Он устал отличать пугающие видения от странных событий своей каждодневной жизни. Но в последнее время они стали пересекаться самым страшным и непредсказуемым образом.
Рейтинг MPAA: Рейтинг R (Подростки до 17 лет допускаются на фильм только в сопровождении одного из родителей)
Мировая премьера: 18 января 2004
Премьера в России: 21 октября 2004, «Пирамида»
Бюджет: $5 000 000
Кассовые сборы: $8 111 302
Изображение 7.80 (77 481)

Качество: BDRip, 720p
Формат: MKV
Видео кодек: H264 (AVC)
Аудио кодек: AC3 (Dolby Digital)
Видео: 1280x542p (2.35:1), 23.976 fps, AVC MPEG4 (x264), High@L4.1, ~4543 kbps avg, 0.273 bit/pixel
Аудио #1: Аудио #1: русский 48 kHz, AC3, 6 ch, ~448 kbps avg [Профессиональный (многоголосый закадровый) (R5) [Профессиональный (многоголосый закадровый)]
Аудио #2: Аудио #2: русский 48 kHz, AC3, 6 ch, ~448 kbps avg [Профессиональный (двухголосый) (Tycoon) [Профессиональный (двухголосый закадровый)]
Аудио #3: Аудио #3: английский 48 kHz, AC3, 6 ch, ~448 kbps avg [Оригинал] [Оригинальная звуковая дорожка]
Аудио #4: английский 48 kHz, Vorbis, 2 ch, ~64 kbps avg [Комментарий] [Комментарий]
Субтитры: Русские, Английские
MediaInfo
Общее
Уникальный идентификатор : 248154896577365091428501409077218569919 (0xBAB0E50595B2164EA2F65E11A1D4EEBF)
Полное имя : T:\Video\Mashinist.2004.BDRip.720p\Mashinist.2004.BDRip.720p.mkv
Формат : Matroska
Размер файла : 3,60 Гбайт
Продолжительность : 1 ч. 41 м.
Общий поток : 5059 Кбит/сек
Дата кодирования : UTC 2011-04-02 13:38:46
Программа кодирования : mkvmerge v4.0.0 ('The Stars were mine') сборка от Jun 6 2010 16:18:42
Библиотека кодирования : libebml v1.0.0 + libmatroska v1.0.0

Видео
Идентификатор : 1
Формат : AVC
Формат/Информация : Advanced Video Codec
Профиль формата : High@L4.1
Параметр CABAC формата : Да
Параметр ReFrames формата : 8 кадры
Идентификатор кодека : V_MPEG4/ISO/AVC
Продолжительность : 1 ч. 41 м.
Битрейт : 4543 Кбит/сек
Ширина : 1280 пикс.
Высота : 542 пикс.
Соотношение сторон : 2,35:1
Частота кадров : 23,976 кадр/сек
Цветовое пространство : YUV
Подвыборка цветности : 4:2:0
Битовая глубина : 8 бит
Тип развёртки : Прогрессивная
Бит/(Пиксели*Кадры) : 0.273
Размер потока : 3,17 Гбайт (88%)
Заголовок : 2004.BDRip.720p
Библиотека кодирования : x264 core 84 r1416 fcf70c2
Настройки программы : cabac=1 / ref=8 / deblock=1:-3:-3 / analyse=0x3:0x113 / me=tesa / subme=10 / psy=1 / psy_rd=1.0:0.0 / mixed_ref=1 / me_range=64 / chroma_me=1 / trellis=2 / 8x8dct=1 / cqm=0 / deadzone=21,11 / fast_pskip=0 / chroma_qp_offset=-2 / threads=6 / sliced_threads=0 / nr=0 / decimate=0 / mbaff=0 / constrained_intra=0 / bframes=6 / b_pyramid=2 / b_adapt=2 / b_bias=0 / direct=3 / wpredb=1 / wpredp=2 / keyint=250 / keyint_min=25 / scenecut=40 / intra_refresh=0 / rc=2pass / mbtree=0 / bitrate=4543 / ratetol=1.0 / qcomp=0.60 / qpmin=10 / qpmax=51 / qpstep=4 / cplxblur=20.0 / qblur=0.5 / ip_ratio=1.40 / pb_ratio=1.30 / aq=1:0.80
Язык : English

Аудио #1
Идентификатор : 2
Формат : AC-3
Формат/Информация : Audio Coding 3
Расширение режима : CM (complete main)
Идентификатор кодека : A_AC3
Продолжительность : 1 ч. 41 м.
Вид битрейта : Постоянный
Битрейт : 448 Кбит/сек
Канал(ы) : 6 канала(ов)
Расположение каналов : Front: L C R, Side: L R, LFE
Частота : 48,0 КГц
Битовая глубина : 16 бит
Метод сжатия : С потерями
Размер потока : 327 Мбайт (9%)
Заголовок : MVO (R5)
Язык : Russian

Аудио #2
Идентификатор : 3
Формат : Vorbis
Параметр Floor формата : 1
Идентификатор кодека : A_VORBIS
Продолжительность : 1 ч. 41 м.
Вид битрейта : Постоянный
Битрейт : 64,0 Кбит/сек
Канал(ы) : 2 канала(ов)
Частота : 48,0 КГц
Метод сжатия : С потерями
Размер потока : 46,7 Мбайт (1%)
Заголовок : Комментарий
Библиотека кодирования : aoTuV b5c (UTC 2008-12-15)
Язык : English

Текст #1
Идентификатор : 4
Формат : UTF-8
Идентификатор кодека : S_TEXT/UTF8
Идентификатор кодека/Информация : UTF-8 Plain Text
Заголовок : русский
Язык : Russian

Текст #2
Идентификатор : 5
Формат : UTF-8
Идентификатор кодека : S_TEXT/UTF8
Идентификатор кодека/Информация : UTF-8 Plain Text
Заголовок : английский
Свернуть
Скриншоты
Изображение
Изображение
Изображение
Изображение
Изображение
Изображение
Изображение
Изображение
Свернуть
Не в сети
Профиль  
 Добавлено: 2011-04-27 00:20 (спустя 4 дня)
Кинокомментатор
Аватара пользователя
Стаж: 9 лет 1 месяц
Сообщений: 1332
Лайков: 54
я так думаю просмотра достоин больше чем многое что щас выходит)
Не в сети
Профиль  
 Добавлено: 2011-04-27 01:17 (спустя 57 минут)
Аватара пользователя
Стаж: 9 лет
Сообщений: 168
Спасибок: 2139
Полностью с тобой согласен,бэйл актёрище.Особенно приятно в качестве смотреть такие фильмы.
Не в сети
Профиль  
 Добавлено: 2011-05-02 20:10 (спустя 5 дней)
Кинокомментатор
Аватара пользователя
Стаж: 9 лет 1 месяц
Сообщений: 1332
Лайков: 54
Бэйл конечно фрик не слабый) так играет:) ууух) а фильм тоже вынес в принципе:) но нудновато, скучновато и не до конца я может понял) заскучал:) но 1 раз посмотреть мне понравилось!) Бэйлу 10, фильму 6 :)
Не в сети
Профиль  
Начать новую темуОтветить на тему  [ Сообщений: 4 ] 
Вы не можете начинать темы
Вы не можете отвечать на сообщения
Вы не можете редактировать свои сообщения
Вы не можете удалять свои сообщения